<?xml version="1.0" standalone="no"?>
<!DOCTYPE svg PUBLIC "-//W3C//DTD SVG 1.1//EN" "http://www.w3.org/Graphics/SVG/1.1/DTD/svg11.dtd" >
<svg xmlns="http://www.w3.org/2000/svg">
<metadata></metadata>
<defs>
<font id="eng_gothicnormal" horiz-adv-x="901" >
<font-face units-per-em="2048" ascent="1638" descent="-410" />
<missing-glyph horiz-adv-x="396" />
<glyph horiz-adv-x="0" />
<glyph unicode="&#xd;" horiz-adv-x="396" />
<glyph unicode=" "  horiz-adv-x="396" />
<glyph unicode="&#x09;" horiz-adv-x="396" />
<glyph unicode="&#xa0;" horiz-adv-x="396" />
<glyph unicode="!" horiz-adv-x="451" d="M115 1446h209l-47 -1022h-115zM122 0v211h194v-211h-194z" />
<glyph unicode="&#x22;" horiz-adv-x="685" d="M96 879v557h144v-557h-144zM405 879v557h144v-557h-144z" />
<glyph unicode="#" horiz-adv-x="1558" d="M83 434l55 154h297l97 276h-315l54 154h315l156 442h170l-154 -442h271l156 442h170l-154 -442h291l-52 -154h-293l-98 -276h310l-55 -154h-307l-156 -440h-169l155 440h-273l-157 -440h-170l155 440h-299zM605 586h277l97 278h-277z" />
<glyph unicode="$" horiz-adv-x="871" d="M80 177l133 122q41 -93 147 -147v506q-270 199 -270 440q0 141 73.5 244t196.5 131v176h101v-175q83 -9 141 -48t104 -107l-116 -119q-14 26 -45 53.5t-84 44.5v-464q168 -122 231.5 -231t63.5 -257q0 -150 -78 -255t-217 -123v-173h-101v174q-52 10 -101 30.5t-79 44.5 q-64 50 -100 133zM265 1114q0 -49 18.5 -96.5t76.5 -108.5v385q-58 -36 -76 -75q-19 -42 -19 -105zM461 152q59 20 86.5 77.5t27.5 135.5q0 58 -25.5 113t-88.5 116v-442z" />
<glyph unicode="%" horiz-adv-x="1130" d="M32 976v264q0 107 54 169q57 66 162 66q101 0 157 -71q50 -64 50 -168v-264q0 -255 -211 -255q-102 0 -157 67.5t-55 191.5zM124 0l644 1446h156l-645 -1446h-155zM168 935q0 -99 76 -99q35 0 55 27q18 24 18 72v336q0 37 -18 63q-24 24 -55 24q-33 0 -54.5 -26.5 t-21.5 -60.5v-336zM604 229v264q0 235 217 235q102 0 156 -70q50 -64 50 -169v-264q0 -122 -56 -189t-156 -67q-211 0 -211 260zM742 188q0 -38 17 -67q21 -34 56 -34q76 0 76 101v334q0 34 -18 60q-23 27 -58 29q-32 1 -52.5 -26t-20.5 -61v-336z" />
<glyph unicode="&#x26;" horiz-adv-x="963" d="M61 309q0 100 40.5 197t133.5 211q-48 112 -75 221.5t-27 200.5q0 136 66 230q75 106 205 106q124 0 188 -89q56 -79 56 -208q0 -96 -38 -189t-171 -277l70 -143l92 -154q33 64 52 125q21 71 33 131l168 -45q-9 -69 -14 -89q-3 -14 -28 -84q-34 -94 -91 -191 q26 -37 58 -60q29 -20 55 -31v-204q-55 3 -110 32q-59 32 -113 96q-59 -68 -117 -98q-61 -30 -135 -30q-132 0 -215 95.5t-83 246.5zM244 329q0 -63 34.5 -107t96.5 -44q35 0 64 15.5t52 52.5q-31 40 -50.5 68.5t-29.5 46.5l-94 178q-22 -33 -35 -61q-16 -32 -25 -61 q-13 -36 -13 -88zM293 1151q0 -99 34 -192q12 -36 36 -88q32 47 60 99.5t37 75.5q27 68 27 140q0 67 -23 109q-27 46 -71 46q-43 0 -71.5 -52.5t-28.5 -137.5z" />
<glyph unicode="'" horiz-adv-x="376" d="M96 879v557h144v-557h-144z" />
<glyph unicode="(" horiz-adv-x="620" d="M112 668q0 212 60 419q57 198 172 388h169q-216 -367 -216 -796q0 -434 226 -816l-124 -76q-287 426 -287 881z" />
<glyph unicode=")" horiz-adv-x="580" d="M41 -137q227 383 227 816q0 223 -55 423q-53 191 -162 373h171q115 -191 170 -386q59 -209 59 -421q0 -225 -73 -451q-72 -221 -213 -430z" />
<glyph unicode="*" horiz-adv-x="814" d="M74 1154l43 134l251 -135l-38 293h128l-38 -293l252 135l42 -134l-280 -48l203 -209l-112 -85l-132 263l-131 -263l-110 85l203 209z" />
<glyph unicode="+" horiz-adv-x="1495" d="M264 538v148h514v535h150v-535h514v-148h-514v-538h-150v538h-514z" />
<glyph unicode="," horiz-adv-x="447" d="M124 11v217h194v-225l-111 -259h-80l75 267h-78z" />
<glyph unicode="-" horiz-adv-x="686" d="M89 457v152h456v-152h-456z" />
<glyph unicode="." horiz-adv-x="455" d="M124 0v228h194v-228h-194z" />
<glyph unicode="/" horiz-adv-x="663" d="M-140 -191l579 1666h141l-579 -1666h-141z" />
<glyph unicode="0" horiz-adv-x="877" d="M93 366v751q0 164 82 259q86 101 247 101q155 0 240 -108q78 -98 78 -258v-751q0 -186 -86 -288.5t-238 -102.5q-159 0 -241 100.5t-82 296.5zM291 303q0 -61 35.5 -104t93.5 -43q59 0 92 46q30 40 30 101v858q0 55 -35.5 90.5t-90.5 35.5q-54 0 -89.5 -35t-35.5 -89 v-860z" />
<glyph unicode="1" horiz-adv-x="512" d="M0 1139v130q166 62 243 177h134v-1446h-202v1139h-175z" />
<glyph unicode="2" horiz-adv-x="822" d="M72 0v198q236 335 340 546q113 228 113 367q0 89 -27 136q-30 51 -82 51q-66 0 -97 -51q-26 -43 -30 -162l-2 -45h-197v17q0 202 88 311q85 107 240 107q142 0 222 -102q73 -93 73 -239q0 -154 -83.5 -345.5t-347.5 -596.5h413v-192h-623z" />
<glyph unicode="3" horiz-adv-x="817" d="M68 376v28h191v-50q0 -98 25 -145q28 -51 89 -51q129 0 129 220q0 161 -43 220.5t-152 59.5h-18v187l9 1h16q167 0 167 236q0 105 -23 150q-26 51 -81 51q-56 0 -88 -41q-26 -41 -26 -129v-34l1 -11h-190v2q0 171 65 276q78 127 238 127q138 0 209.5 -100.5t71.5 -304.5 q0 -127 -28 -200q-26 -67 -108 -116q95 -48 129 -121t34 -225q0 -210 -76 -322.5t-224 -112.5q-149 0 -233 106.5t-84 298.5z" />
<glyph unicode="4" horiz-adv-x="861" d="M61 358v180l367 908h193v-916h135v-172h-135v-358h-190v358h-370zM228 530h203v607z" />
<glyph unicode="5" horiz-adv-x="816" d="M94 356v34h179v-65q0 -177 127 -177q112 0 112 156v374q0 130 -104 130q-91 0 -130 -118l-165 7l24 749h525l9 -192h-376l-21 -380q69 68 115 89.5t97 21.5q112 0 166 -99q43 -78 43 -200v-371q0 -161 -84 -253.5t-226 -92.5q-139 0 -215 98.5t-76 288.5z" />
<glyph unicode="6" horiz-adv-x="868" d="M99 366v751q0 162 83 258q89 102 248 102q154 0 239 -109q79 -99 79 -257v-35h-200v85q0 59 -33.5 92.5t-90.5 33.5q-53 0 -89 -36q-36 -29 -36 -88v-385q60 59 110 83t105 24q234 0 234 -273v-252q0 -391 -326 -391q-159 0 -241 100.5t-82 296.5zM299 303 q0 -61 37.5 -104t91.5 -43q56 0 90 42q30 37 30 105v285q0 60 -26.5 92.5t-78.5 32.5q-39 0 -77 -27t-67 -76v-307z" />
<glyph unicode="7" horiz-adv-x="706" d="M22 1254v192h587v-149l-269 -1297h-195l267 1254h-390z" />
<glyph unicode="8" horiz-adv-x="826" d="M69 404q0 134 37 226q36 88 115 140q-69 49 -99 131.5t-30 201.5q0 372 291 372q143 0 215.5 -94.5t72.5 -275.5q0 -126 -28 -203t-100 -135q78 -43 114 -137.5t36 -244.5q0 -203 -80 -309.5t-230 -106.5q-158 0 -235 108q-79 112 -79 327zM259 428q0 -118 14 -170 q28 -102 114 -102q116 0 116 248q0 138 -25 194q-26 60 -91 60q-69 0 -98.5 -51.5t-29.5 -178.5zM271 1095q0 -121 23 -173q30 -51 91 -51q56 0 83 53q23 46 23 169q0 122 -23 172q-24 54 -87 54q-57 0 -87 -51q-23 -52 -23 -173z" />
<glyph unicode="9" horiz-adv-x="853" d="M73 1014q0 463 335 463q159 0 240.5 -101t81.5 -296v-751q0 -165 -88 -262.5t-242 -97.5q-147 0 -233 98q-90 104 -86 268l1 35h199v-87q0 -56 34.5 -91.5t90.5 -35.5q54 0 89 36.5t35 90.5v387q-50 -55 -93.5 -77t-90.5 -22q-273 0 -273 443zM281 923q0 -87 31 -135 t90 -48q81 0 128 97v306q0 69 -33.5 106.5t-94.5 37.5q-59 0 -90 -41.5t-31 -117.5v-205z" />
<glyph unicode=":" horiz-adv-x="447" d="M124 0v215h194v-215h-194zM124 420v215h194v-215h-194z" />
<glyph unicode=";" horiz-adv-x="436" d="M124 6v213h194v-221l-111 -254h-80l75 262h-78zM124 422v213h194v-213h-194z" />
<glyph unicode="&#x3c;" horiz-adv-x="1510" d="M273 536v149l1159 486v-166l-952 -394l952 -395v-164z" />
<glyph unicode="=" horiz-adv-x="1484" d="M263 322v151h1179v-151h-1179zM263 748v153h1179v-153h-1179z" />
<glyph unicode="&#x3e;" horiz-adv-x="1467" d="M273 52v164l952 395l-952 394v166l1159 -486v-149z" />
<glyph unicode="?" horiz-adv-x="686" d="M18 1210q80 265 296 265q128 0 203 -72.5t75 -200.5q0 -99 -70 -236q-58 -111 -116 -223q-40 -99 -40 -246v-46l1 -19h-153l-1 20l-3 31q0 24 5 92q2 33 10 105q12 79 48 178q24 67 78 167q61 115 61 165q0 48 -25.5 78t-68.5 30q-77 0 -143 -153zM192 0v221h196v-221 h-196z" />
<glyph unicode="@" horiz-adv-x="2041" d="M108 521q0 337 203 587q296 364 805 364q167 0 313 -45q82 -25 138 -53q123 -62 225 -182q53 -61 84 -126q64 -133 64 -300q0 -171 -62 -300q-67 -139 -184 -236q-68 -56 -146 -84q-82 -28 -165 -28q-101 0 -150 39t-49 152q-73 -111 -142 -149q-73 -40 -171 -40 q-146 0 -225 84t-79 245q0 215 121 377q132 177 340 177q91 0 146 -33.5t102 -120.5l61 119l135 -1l-153 -631q0 -41 31 -68.5t76 -27.5q114 0 220 120q150 168 150 404q0 262 -189 424t-497 162q-137 0 -255.5 -30.5t-220.5 -96.5q-382 -247 -382 -704q0 -316 214.5 -510 t563.5 -194q347 0 612 189l56 -83q-287 -222 -659 -222q-378 0 -627 190q-157 121 -229 274q-75 162 -75 358zM732 443q0 -217 184 -217q98 0 176 78q72 71 96 171l55 233q-13 91 -64 140t-130 49q-151 0 -241 -159q-76 -132 -76 -295z" />
<glyph unicode="A" horiz-adv-x="870" d="M24 0l234 1446h275l233 -1446h-208l-45 318h-243l-47 -318h-199zM296 505h192l-77 634h-33z" />
<glyph unicode="B" horiz-adv-x="920" d="M124 0v1446h286q171 0 267 -96.5t96 -275.5q0 -109 -37.5 -189t-127.5 -146q100 -59 141.5 -142t41.5 -215q0 -193 -86 -287.5t-260 -94.5h-321zM326 192h106q149 0 149 220q0 125 -40 176q-36 56 -133 56h-82v-452zM326 836h100q138 0 138 211q0 108 -36 157.5 t-120 49.5h-82v-418z" />
<glyph unicode="C" horiz-adv-x="870" d="M98 366v751q0 165 87 261q91 99 254 99q160 0 246 -105q79 -97 79 -261v-131h-210v152q0 162 -124 162q-60 0 -92 -41t-32 -121v-817q0 -165 124 -165q62 0 94 44q30 41 30 121v188h210v-143q0 -175 -78 -277q-87 -114 -256 -114q-162 0 -247 101.5t-85 295.5z" />
<glyph unicode="D" horiz-adv-x="917" d="M124 0v1446h308q177 0 264 -94.5t87 -297.5v-654q0 -211 -81.5 -305.5t-258.5 -94.5h-319zM326 196h123q63 0 96 43q30 39 30 121v706q0 95 -46 139.5t-142 44.5h-61v-1054z" />
<glyph unicode="E" horiz-adv-x="784" d="M124 0v1446h563v-192h-359v-404h258v-192h-258v-458h359v-200h-563z" />
<glyph unicode="F" horiz-adv-x="755" d="M124 0v1446h563v-192h-359v-404h258v-192h-258v-658h-204z" />
<glyph unicode="G" horiz-adv-x="873" d="M98 366v751q0 165 87 261q91 99 254 99q152 0 231.5 -92.5t79.5 -273.5v-125h-196v146q0 162 -124 162q-60 0 -92 -41t-32 -121v-817q0 -165 124 -165q62 0 94 44q30 41 30 121v238h-134v166h330v-719h-89l-49 116q-44 -83 -95 -115t-121 -32q-147 0 -222.5 100.5 t-75.5 296.5z" />
<glyph unicode="H" horiz-adv-x="908" d="M124 0v1446h202v-598h243v598h204v-1446h-204v656h-243v-656h-202z" />
<glyph unicode="I" horiz-adv-x="467" d="M124 0v1446h208v-1446h-208z" />
<glyph unicode="J" horiz-adv-x="498" d="M-3 0v205l6 -1l29 -2h11q49 0 83 34q33 35 33 99v1111h204v-1068q0 -378 -250 -378h-116z" />
<glyph unicode="K" horiz-adv-x="926" d="M124 0v1446h204v-680l36 128l14 35l219 517h198l-243 -489l275 -957h-210l-194 756l-95 -193v-563h-204z" />
<glyph unicode="L" horiz-adv-x="746" d="M124 0v1446h202v-1254h346v-192h-548z" />
<glyph unicode="M" horiz-adv-x="1162" d="M124 0v1446h280l156 -907l6 -116l20 1v50q0 25 4 53l16 113l137 806h284v-1446h-189l3 1022l13 149l-20 3l-13 -81l-22 -127l-180 -966h-95l-206 1174l-20 -3l10 -141l4 -114v-916h-188z" />
<glyph unicode="N" horiz-adv-x="951" d="M124 0v1446h185l322 -1025l20 4l-19 119l-6 78v824h190v-1446h-193l-315 963l-20 -4l18 -129l6 -74v-756h-188z" />
<glyph unicode="O" d="M98 366v751q0 165 87 261q91 99 254 99q160 0 246 -105q79 -97 79 -261v-751q0 -175 -78 -277q-87 -114 -256 -114q-162 0 -247 101.5t-85 295.5zM306 315q0 -165 124 -165q62 0 94 44q30 41 30 121v817q0 162 -124 162q-60 0 -92 -41t-32 -121v-817z" />
<glyph unicode="P" horiz-adv-x="877" d="M122 0v1446h319q175 0 256.5 -98.5t81.5 -315.5q0 -171 -59 -286q-76 -150 -230 -150h-164v-596h-204zM326 785h98q84 0 118 55q29 50 29 188q0 128 -32 177t-123 49h-90v-469z" />
<glyph unicode="Q" horiz-adv-x="939" d="M98 367v750q0 166 87 261q91 99 254 99q160 0 246 -105q79 -97 79 -261l-6 -866q-2 -35 -25 -84q13 -27 36 -44q18 -7 56 -11l1 -205h-15q-72 0 -122 28t-87 95q-93 -54 -186 -54q-166 0 -248 120q-70 103 -70 277zM306 315q0 -164 124 -164q62 0 94 44q30 41 30 120v818 q0 161 -124 161q-60 0 -92 -41t-32 -120v-818z" />
<glyph unicode="R" horiz-adv-x="913" d="M122 0v1446h319q180 0 259 -96.5t79 -317.5q0 -131 -32 -215.5t-111 -140.5l162 -676h-210l-137 618h-125v-618h-204zM326 808h98q81 0 114 52t33 181q0 119 -32.5 166t-122.5 47h-90v-446z" />
<glyph unicode="S" horiz-adv-x="868" d="M57 354l193 30q2 -43 13 -85q14 -48 30 -75q42 -57 115 -57q63 0 107 40q39 45 39 112q0 127 -183 304l-21 20q-166 160 -225 276q-48 94 -48 194q0 146 95 250q98 108 242 108q134 0 224 -97q97 -106 100 -248l-197 -27q-2 83 -37 134q-31 46 -96 46q-129 0 -129 -144 q0 -125 226 -354q157 -159 201 -247q46 -91 46 -211q0 -151 -92 -252q-95 -104 -244 -104q-245 0 -331 231q-27 72 -28 156z" />
<glyph unicode="T" horiz-adv-x="746" d="M-3 1254v192h667v-192h-231v-1254h-203l-1 1254h-232z" />
<glyph unicode="U" horiz-adv-x="910" d="M108 366v1080h208v-1125q0 -64 37.5 -106.5t91.5 -42.5q122 0 122 149v1125h208v-1086q0 -220 -119 -322q-81 -69 -213 -69q-162 0 -248.5 103t-86.5 294z" />
<glyph unicode="V" horiz-adv-x="851" d="M32 1446h197l150 -1017l7 -173l20 -1l8 182l16 150l128 859h198l-252 -1446h-217z" />
<glyph unicode="W" horiz-adv-x="1184" d="M24 1446h193l111 -1117l20 -1l4 81q1 52 4 129q4 24 11 78l109 830h173l128 -975l4 -143h20l2 44l16 245l91 829h190l-222 -1446h-168l-132 959l-5 143h-20l-10 -191q0 -21 -2 -55q0 -5 -6 -42l-118 -814h-168z" />
<glyph unicode="X" horiz-adv-x="856" d="M9 0l262 735l-258 711h212l135 -432h24l143 432h207l-250 -692l272 -754h-212l-146 478h-22l-157 -478h-210z" />
<glyph unicode="Y" horiz-adv-x="778" d="M-11 1446h204l145 -585h31l137 585h205l-256 -846v-600h-204v573z" />
<glyph unicode="Z" horiz-adv-x="810" d="M73 0v214l405 1025h-372l1 207h588v-200l-409 -1040h409v-206h-622z" />
<glyph unicode="[" horiz-adv-x="587" d="M151 -186v1660h335v-166h-154v-1326h154v-168h-335z" />
<glyph unicode="\" horiz-adv-x="667" d="M-83 1475h144l579 -1666h-143z" />
<glyph unicode="]" horiz-adv-x="547" d="M80 -18h153v1326h-153v166h332v-1660h-332v168z" />
<glyph unicode="^" horiz-adv-x="1701" d="M439 899l481 561h208l478 -561h-180l-402 417l-403 -417h-182z" />
<glyph unicode="_" horiz-adv-x="946" d="M9 -312h1005v-172h-1005v172z" />
<glyph unicode="`" horiz-adv-x="736" d="M300 1389h224l90 -221h-142z" />
<glyph unicode="a" horiz-adv-x="771" d="M56 215q0 145 83.5 249.5t308.5 229.5v122q0 48 -18 81q-22 29 -59 30h-3q-44 0 -70 -28q-28 -29 -27 -75v-50h-181v5l-3 16q0 128 83.5 213.5t206.5 85.5q256 0 256 -330v-463q0 -32 2 -95t2 -95q0 -57 12 -111h-178l-10 42l-8 100q-58 -82 -118 -119.5t-114 -37.5 q-75 0 -120 58.5t-45 171.5zM242 268q0 -58 18 -85q17 -32 54 -32q36 0 74.5 31t59.5 77v303q-121 -81 -163.5 -143t-42.5 -151z" />
<glyph unicode="b" horiz-adv-x="775" d="M106 0v1446h181v-489q56 67 101 93.5t85 26.5q183 0 183 -263v-600q0 -111 -45 -172q-42 -57 -125 -57q-56 0 -101 22q-38 19 -98 95v-102h-181zM287 192q31 -32 50.5 -42t52.5 -14q41 0 63 26q18 27 18 82v558q0 59 -22 92q-26 31 -70 31q-27 0 -46 -14q-18 -6 -46 -36 v-683z" />
<glyph unicode="c" horiz-adv-x="772" d="M86 297v479q0 141 73 227q78 91 216 91q135 0 207 -89q68 -82 68 -219v-76h-186v78q0 72 -21 104.5t-74 32.5q-50 0 -76 -34q-22 -39 -22 -103v-485q0 -85 19 -123q27 -40 77 -40q51 0 75 33q22 30 22 130v73h186v-79q0 -161 -74 -243.5t-213 -82.5q-126 0 -201.5 89.5 t-75.5 236.5z" />
<glyph unicode="d" horiz-adv-x="766" d="M86 214v600q0 263 183 263q41 0 85 -26q30 -18 45.5 -30t54.5 -68v493h179v-1446h-179v104q-56 -71 -100.5 -95t-99.5 -24q-80 0 -124 58t-44 171zM271 244q0 -106 79 -106q29 0 51 10.5t53 43.5v683q-28 28 -45 38q-20 10 -47 14q-41 0 -69 -36q-22 -34 -22 -89v-558z " />
<glyph unicode="e" horiz-adv-x="779" d="M86 297v489q0 133 79.5 220.5t211.5 87.5q137 0 208 -87q65 -81 65 -221v-268h-379v-215q0 -85 19 -123q27 -40 77 -40q51 0 75 33q22 30 22 130v65h186v-71q0 -161 -74 -243.5t-213 -82.5q-136 0 -210 97q-67 88 -67 229zM271 666h193v122q0 72 -21 104.5t-74 32.5 q-50 0 -76 -34q-22 -39 -22 -103v-122z" />
<glyph unicode="f" horiz-adv-x="567" d="M20 914v148h113v137q0 123 56 185t166 62q40 0 57 -4l47 -10v-156l-23 6l-19 2q-56 0 -80.5 -25t-24.5 -77v-120h127v-148h-127v-914h-178l-1 914h-113z" />
<glyph unicode="g" horiz-adv-x="828" d="M18 -180q0 17 14 48q17 36 37 52l11 9q14 12 29 19l107 51q-87 24 -115 52.5t-28 69.5q0 48 25.5 87t112.5 106q-79 49 -108.5 106t-29.5 148v216q0 310 263 310q71 0 120.5 -27t114.5 -102q25 60 60 85q31 22 76 30v-153l-14 3l-16 2q-25 0 -50 -14q-21 -8 -37 -35v-41 l2 -36v-240q0 -136 -62 -207q-66 -74 -160 -74q-11 0 -23 1l-50 4q-61 -29 -61 -79q0 -64 127 -64q50 0 110 -10q128 -21 186 -76.5t58 -157.5q0 -245 -375 -245q-152 0 -240 47q-84 44 -84 115zM218 -116q0 -37 45.5 -66t107.5 -29q80 0 131 26q55 27 55 71q0 53 -62 75 q-55 19 -194 19q-83 -40 -83 -96zM236 556q0 -53 22 -92q27 -28 74 -28q51 0 76 32q22 29 22 88v251q0 61 -22 92q-27 29 -76 29q-45 0 -74 -31q-22 -31 -22 -90v-251z" />
<glyph unicode="h" horiz-adv-x="777" d="M106 0v1446h181v-517q47 49 73 74q22 20 55 40q57 34 110 34q129 0 129 -182v-895h-178l-1 806q0 52 -12 75q-15 20 -51 20q-25 0 -61 -24q-26 -17 -38 -32q-13 -11 -26 -32v-813h-181z" />
<glyph unicode="i" horiz-adv-x="411" d="M106 0v1062h181v-1062h-181zM106 1264v182h181v-182h-181z" />
<glyph unicode="j" horiz-adv-x="442" d="M-31 -168l20 -4l29 -2h8q37 0 63 26q25 25 25 63v1148h179v-1152q0 -247 -221 -247q-37 0 -55 4l-48 10v154zM114 1265v181h179v-181h-179z" />
<glyph unicode="k" horiz-adv-x="793" d="M106 0v1446h181v-816l198 432h190l-192 -352l209 -710h-180l-144 554l-81 -152v-402h-181z" />
<glyph unicode="l" horiz-adv-x="422" d="M106 0v1446h181v-1446h-181z" />
<glyph unicode="m" horiz-adv-x="1157" d="M106 0v1067h181v-130q71 86 123.5 115.5t109.5 29.5q54 0 85 -27.5t52 -110.5q40 46 61.5 66t54.5 37q62 33 110 33q69 0 103 -44t34 -130v-906h-181v810q0 52 -12 75q-15 21 -51 21q-25 0 -59 -25q-37 -27 -65 -63v-818h-164l-1 810q0 51 -14.5 73.5t-52.5 22.5 q-30 0 -62 -24q-35 -21 -71 -64v-818h-181z" />
<glyph unicode="n" horiz-adv-x="791" d="M106 0v1067h181v-133q47 49 73 73q22 21 55 41q57 34 110 34q129 0 129 -182v-900h-178l-1 810q0 52 -12 75q-15 21 -51 21q-25 0 -61 -24q-26 -18 -38 -33q-13 -11 -26 -32v-817h-181z" />
<glyph unicode="o" horiz-adv-x="791" d="M86 266v563q0 125 81 197q77 68 204 68q120 0 195.5 -75.5t75.5 -196.5v-561q0 -133 -73.5 -210.5t-205.5 -77.5q-122 0 -199.5 81t-77.5 212zM271 245q0 -44 25 -74t67 -30q44 0 70 30t26 74v592q0 39 -28.5 64.5t-67.5 25.5q-83 0 -92 -89v-593z" />
<glyph unicode="p" horiz-adv-x="793" d="M106 -336v1403h181v-103q44 53 63 69t38 25q41 24 98 24q170 0 170 -231v-599q0 -126 -47 -194t-136 -68q-44 0 -85.5 24t-100.5 96v-446h-181zM287 192q30 -30 47.5 -38.5t43.5 -12.5q45 0 71 33q22 29 22 90v559q0 59 -19 83t-61 24q-49 0 -104 -54v-684z" />
<glyph unicode="q" horiz-adv-x="771" d="M86 252v599q0 114 45 174q43 57 123 57q76 0 144 -53q17 -13 56 -69v107h179v-1403h-179v446q-56 -68 -100 -96q-48 -24 -85 -24q-89 0 -136 65t-47 197zM271 264q0 -123 90 -123q20 0 42 10t51 41v684q-28 28 -51 39q-8 6 -22 11q-13 2 -30 4q-80 0 -80 -107v-559z" />
<glyph unicode="r" horiz-adv-x="631" d="M106 0v1067h181v-183q56 120 107.5 158t113.5 38h11v-204l-19 7l-36 4q-82 0 -129.5 -51t-47.5 -134v-702h-181z" />
<glyph unicode="s" horiz-adv-x="762" d="M39 277l174 39q26 -175 140 -175q42 0 74 28q28 35 28 78q0 88 -206 248l-4 4q-103 80 -143.5 148t-40.5 161q0 128 78 207t205 79q117 0 190 -71q71 -67 84 -193l-169 -41q-7 28 -14 52q-12 30 -23 44q-31 40 -78 40q-42 0 -69 -31.5t-27 -75.5q0 -69 145 -191l59 -50 q95 -81 134 -138q55 -82 55 -182q0 -129 -78.5 -207.5t-208.5 -78.5t-211 90q-72 80 -94 216z" />
<glyph unicode="t" horiz-adv-x="600" d="M37 914v149h122v311h179v-311h148v-149h-148v-676q0 -52 26 -78q25 -26 65 -27q4 0 8 1l26 2l23 6v-157l-46 -10l-60 -4q-10 -1 -19 -1q-92 0 -147 63q-55 62 -55 187v694h-122z" />
<glyph unicode="u" horiz-adv-x="786" d="M102 167v900h179v-824q0 -84 63 -84q42 0 97 56l15 16q7 7 15 16v820h179v-1067h-179v138q-66 -84 -127.5 -119.5t-111.5 -35.5q-130 0 -130 184z" />
<glyph unicode="v" horiz-adv-x="722" d="M12 1067h165l122 -670h28l100 670h176l-203 -1067h-166z" />
<glyph unicode="w" horiz-adv-x="1047" d="M11 1067h171l79 -513l12 -116l8 -148h20v75q6 35 8 50q0 36 4 58q4 19 15 81l79 513h134l105 -645l10 -132h20v44l4 113l8 107l77 513h163l-178 -1067h-158l-103 617l-6 152l-20 -1v-53q-3 -24 -10 -91l-10 -105l-77 -519h-159z" />
<glyph unicode="x" horiz-adv-x="716" d="M10 0l200 557l-186 510h178l96 -291h25l94 291h183l-192 -505l199 -562h-173l-113 334h-23l-114 -334h-174z" />
<glyph unicode="y" horiz-adv-x="734" d="M30 1067h167l123 -694h25l100 694h178l-223 -1145q-26 -136 -84 -194q-65 -64 -197 -64h-43l-27 1v173h27q171 0 171 183z" />
<glyph unicode="z" horiz-adv-x="708" d="M63 0v169l333 729h-308v169h488v-167l-316 -727h316v-173h-513z" />
<glyph unicode="{" horiz-adv-x="941" d="M172 452v159l11 -1h22q134 0 187 62t53 211v250q0 117 11 165q20 89 88 131q38 24 105 36q63 12 181 12h35v-160h-15l-22 2q-110 0 -153.5 -45t-43.5 -182v-245q0 -154 -41.5 -216t-193.5 -100q149 -36 192 -100t43 -217v-243q0 -139 43.5 -184t155.5 -45h22l13 1v-157 h-54q-94 0 -147.5 10t-74.5 19q-24 6 -45 19q-49 31 -74 95.5t-25 198.5v251q0 149 -55 212t-185 63l-22 -2h-11z" />
<glyph unicode="|" horiz-adv-x="727" d="M434 -484v2049h158v-2049h-158z" />
<glyph unicode="}" horiz-adv-x="946" d="M162 -257l12 -1h23q112 0 153.5 43.5t41.5 185.5v243q0 151 46 218q44 63 192 99q-146 36 -192 101t-46 215v245q0 136 -42 182t-127 46q-12 0 -25 -1l-22 -2h-14v160h35q105 0 178 -12q66 -11 110 -38q63 -39 82 -132q11 -51 11 -162v-250q0 -139 50 -202 q57 -71 191 -71h21l12 1v-159h-12l-21 2q-135 0 -191 -71q-50 -64 -50 -204v-251q0 -146 -22 -206q-37 -98 -177 -124q-65 -12 -182 -12h-35v157z" />
<glyph unicode="~" horiz-adv-x="1630" d="M187 444v172q202 147 378 147q59 0 121 -13q49 -10 168 -49l43 -18q149 -61 254 -61q168 0 369 153v-170q-93 -67 -190.5 -105.5t-180.5 -38.5h-52q-23 5 -38 8q-40 7 -97 28l-76 28q-218 79 -323 79q-157 0 -376 -160z" />
<glyph unicode="&#xa1;" horiz-adv-x="450" d="M115 0l47 1022h115l47 -1022h-209zM122 1235v211h194v-211h-194z" />
<glyph unicode="&#xa2;" horiz-adv-x="809" d="M135 489v485q0 121 55 196q54 72 174 105v245h103v-241q127 -30 179.5 -100t52.5 -205v-75h-184v77q0 73 -24 105t-73 32q-53 0 -75.5 -33t-22.5 -104v-483q0 -88 19 -121q22 -39 77 -39q52 0 75 31t23 129v75h185v-79q0 -155 -62 -231q-53 -66 -170 -89v-245h-103v243 q-119 32 -174 114.5t-55 207.5z" />
<glyph unicode="&#xa3;" horiz-adv-x="871" d="M114 0v177q80 19 131 83q58 74 51 159l-6 73q-4 18 -6 37q-2 14 -16 67h-137v166h91q-25 60 -41 109q-11 32 -26 94q-24 91 -24 154q0 144 79 246q86 110 226 110q324 0 324 -443v-18h-201q-1 133 -32 206q-28 65 -93 65q-100 0 -100 -147q0 -114 41 -262q13 -41 33 -114 h244v-166h-206l9 -133q4 -57 -21 -133q-21 -68 -70 -138h400v-192h-650z" />
<glyph unicode="&#xa4;" horiz-adv-x="1269" d="M90 424l202 207q-46 64 -63 122q-20 63 -20 132q0 71 19 131t64 123l-202 207l78 80l202 -205q116 86 251 86q76 0 132.5 -18t120.5 -68l201 205l81 -80l-204 -208q25 -33 39 -57q44 -101 44 -196q0 -68 -20 -132q-17 -59 -63 -122l204 -207l-81 -80l-201 208 q-32 -24 -64 -40q-24 -13 -59 -26q-56 -21 -128 -21q-99 0 -193 47q-27 14 -60 40l-202 -208zM322 885q0 -126 87.5 -215.5t213.5 -89.5t213.5 89.5t87.5 215.5q0 125 -88 216t-213 91t-213 -91t-88 -216z" />
<glyph unicode="&#xa5;" horiz-adv-x="800" d="M0 1446h193l141 -597h31l129 597h198l-158 -539h163v-71h-185l-43 -157h228v-71h-252v-608h-194v608h-247v71h224l-44 157h-180v71h157z" />
<glyph unicode="&#xa6;" horiz-adv-x="728" d="M434 -350v746h158v-746h-158zM434 686v746h158v-746h-158z" />
<glyph unicode="&#xa7;" horiz-adv-x="918" d="M73 801q0 81 53 143.5t160 80.5q-60 80 -81 122t-21 95q0 105 74 171q71 62 178 62q94 0 161 -36t124 -110l-114 -87q-50 55 -83 76t-71 21q-49 0 -75 -31q-30 -28 -30 -78q0 -32 27 -72q20 -31 95 -107l172 -174q88 -90 126.5 -163t38.5 -141q0 -89 -46.5 -142 t-165.5 -81q61 -72 82 -119q24 -56 24 -119q0 -115 -71.5 -184.5t-190.5 -69.5q-175 0 -296 163l116 93q99 -111 165 -111q50 0 81.5 31t31.5 80q0 39 -22 80q-12 21 -44 61q-10 12 -48 52l-191 204q-87 93 -127 164q-32 70 -32 126zM231 821q0 -37 35 -93q45 -59 110 -125 q135 -136 192 -136q36 0 58.5 26t22.5 63q0 32 -17 64q-13 19 -40 56q-5 7 -16 19l-24 25q-122 134 -155 158q-41 29 -80 34q-37 0 -61.5 -27t-24.5 -64z" />
<glyph unicode="&#xa8;" horiz-adv-x="860" d="M294 1178v201h163v-201h-163zM565 1178v201h165v-201h-165z" />
<glyph unicode="&#xa9;" horiz-adv-x="1686" d="M122 731q0 144 59 281q91 212 267 333q179 125 404 125q309 0 520.5 -214.5t211.5 -524.5q0 -154 -54 -286q-113 -275 -395 -397q-135 -58 -283 -58q-218 0 -405 128q-183 127 -268 329q-57 137 -57 284zM213 731q0 -269 192 -459.5t449 -190.5q260 0 454 193 q187 185 187 457q0 138 -46 253q-97 244 -347 348q-117 49 -248 49q-268 0 -453 -192q-188 -194 -188 -458zM466 725q0 202 109 328q107 122 283 122q145 0 238 -74q97 -77 101 -185h-147q-12 68 -63 114q-58 42 -137 42q-119 0 -177 -118q-44 -91 -44 -223q0 -135 47 -222 q60 -109 184 -109q169 0 198 170h147q-4 -129 -116 -210q-101 -73 -235 -73q-185 0 -290 129q-98 120 -98 309z" />
<glyph unicode="&#xaa;" horiz-adv-x="607" d="M45 850q0 98 62.5 173t232.5 162v88q0 39 -14 61q-18 21 -47 21q-78 0 -78 -76v-32h-131v12q0 92 60 150t153 58q96 0 143.5 -56t47.5 -174l2 -460l9 -76h-129l-6 21l-9 81q-49 -64 -91.5 -88.5t-83.5 -24.5q-55 0 -88 42.5t-33 117.5zM179 886q0 -86 57 -86 q25 0 54.5 20.5t49.5 58.5v222q-92 -59 -126.5 -106.5t-34.5 -108.5z" />
<glyph unicode="&#xab;" horiz-adv-x="778" d="M87 531l140 317h152l-136 -317l136 -316h-151zM361 531l137 317h151l-135 -317l135 -316h-151z" />
<glyph unicode="&#xac;" horiz-adv-x="1583" d="M264 711v151h1178v-501h-146v350h-1032z" />
<glyph unicode="&#xad;" horiz-adv-x="686" d="M89 457v152h456v-152h-456z" />
<glyph unicode="&#xae;" horiz-adv-x="1686" d="M122 731q0 150 57 285q27 64 71.5 129.5t92.5 114.5q206 210 509 210q314 0 521 -218q211 -222 211 -521q0 -311 -212 -522q-220 -219 -520 -219q-219 0 -403 127q-187 128 -272 336q-55 135 -55 278zM213 731q0 -261 190 -455.5t441 -194.5q270 0 462 189 q189 185 189 451q0 140 -45.5 256.5t-137.5 209.5q-95 96 -209.5 145t-248.5 49q-264 0 -449 -188q-192 -194 -192 -462zM561 335v820h310q340 0 340 -218q0 -89 -45 -147q-41 -53 -143 -78l182 -377h-176l-165 350h-145v-350h-158zM719 777h127q203 0 203 140q0 71 -52 109 q-49 35 -159 35h-119v-284z" />
<glyph unicode="&#xaf;" horiz-adv-x="832" d="M323 1213v131h378v-131h-378z" />
<glyph unicode="&#xb0;" horiz-adv-x="746" d="M53 1164q0 123 81.5 209.5t203.5 86.5q119 0 202 -86t83 -210q0 -123 -83 -209t-204 -86q-117 0 -200 86t-83 209zM142 1166q0 -83 57 -143.5t139 -60.5q83 0 138.5 58t55.5 146q0 85 -55.5 143t-138.5 58q-81 0 -138.5 -60t-57.5 -141z" />
<glyph unicode="&#xb1;" horiz-adv-x="1485" d="M264 15v151h1178v-151h-1178zM264 719v148h514v340h150v-340h514v-148h-514v-340h-150v340h-514z" />
<glyph unicode="&#xb2;" horiz-adv-x="594" d="M50 578v114q74 95 129 176q65 95 96 151q75 136 75 227q0 54 -17 83q-21 35 -58 35q-44 0 -68 -32q-20 -37 -20 -102v-22h-125v5q0 118 59 186q55 64 156 64q85 0 137.5 -54t52.5 -148q0 -101 -54 -215t-235 -361h277v-107h-405z" />
<glyph unicode="&#xb3;" horiz-adv-x="584" d="M47 802v12h119v-26q0 -122 80 -122q51 0 68 35q19 28 19 101q0 97 -29 135.5t-101 38.5h-8v106h12q55 0 88 35q27 42 27 113q0 49 -16 92q-19 34 -58 34q-78 0 -78 -108v-24h-119q0 107 51 175q55 61 146 61q183 0 183 -240q0 -79 -18.5 -118.5t-75.5 -74.5 q69 -33 90.5 -76.5t21.5 -130.5q0 -128 -51 -193.5t-144 -65.5q-207 0 -207 241z" />
<glyph unicode="&#xb4;" horiz-adv-x="843" d="M412 1168l89 221h225l-172 -221h-142z" />
<glyph unicode="&#xb6;" horiz-adv-x="1068" d="M66 1136q0 165 110 257q103 86 271 86h512v-79h-117v-1400h-109v1400h-188v-1400h-111v796q-87 0 -153 25q-70 27 -118 73q-97 92 -97 242z" />
<glyph unicode="&#xb7;" horiz-adv-x="473" d="M101 742q0 50 34.5 89.5t83.5 39.5q47 0 83 -39.5t36 -89.5q0 -53 -33.5 -91t-85.5 -38q-45 0 -83 36q-35 41 -35 93z" />
<glyph unicode="&#xb8;" horiz-adv-x="649" d="M309 -257l57 -11l63 -4q35 -3 66 16q28 17 28 49q0 72 -117 73l54 134h48l-35 -83h31q191 0 191 -124q0 -129 -230 -129h-54q-20 2 -62 8q-18 4 -40 9v62z" />
<glyph unicode="&#xb9;" horiz-adv-x="380" d="M4 1268v70q104 35 159 108h83v-868h-128v690h-114z" />
<glyph unicode="&#xba;" horiz-adv-x="610" d="M67 884v397q0 85 59 135.5t153 50.5q85 0 143 -53t58 -137v-395q0 -93 -55 -145q-57 -55 -152 -55t-150.5 54t-55.5 148zM201 870q0 -76 72 -76q73 0 73 76v417q0 28 -21 50q-23 18 -52 18q-26 0 -51 -20q-16 -15 -21 -47v-418z" />
<glyph unicode="&#xbb;" horiz-adv-x="781" d="M91 215l135 316l-135 317h151l137 -317l-137 -316h-151zM359 215l136 316l-136 317h153l141 -317l-141 -316h-153z" />
<glyph unicode="&#xbc;" horiz-adv-x="1187" d="M4 1282v65q99 30 151 97h79v-800h-119v638h-111zM73 0l644 1446h156l-645 -1446h-155zM653 200v95l230 505h115v-513h86v-87h-86v-200h-111v200h-234zM747 287h140v366z" />
<glyph unicode="&#xbd;" horiz-adv-x="1162" d="M4 1282v65q99 30 151 97h79v-800h-119v638h-111zM73 0l644 1446h156l-645 -1446h-155zM659 0v104q288 358 288 514q0 52 -19.5 80.5t-54.5 28.5q-42 0 -64 -32q-15 -21 -20 -92l-1 -19h-116v4q0 106 52.5 167.5t150.5 61.5q84 0 132 -50t48 -135q0 -131 -127 -327 q-46 -71 -147 -208h264v-97h-386z" />
<glyph unicode="&#xbe;" horiz-adv-x="1330" d="M47 850v11h113v-24q0 -58 19 -84q17 -30 57 -30q83 0 83 129q0 88 -29 125t-95 37h-9v93h2l10 2q58 0 85 33q24 31 24 104q0 57 -16 87q-21 29 -53 30q-34 1 -59 -25q-17 -24 -17 -75v-21h-111q4 218 187 218q173 0 173 -222q0 -67 -18.5 -108t-74.5 -69q67 -28 89 -71 t22 -123q0 -118 -49 -178.5t-138 -60.5q-88 0 -145 56q-50 62 -50 166zM218 0l644 1446h155l-644 -1446h-155zM799 200v95l229 505h115v-513h86v-87h-86v-200h-111v200h-233zM893 287h139v366z" />
<glyph unicode="&#xbf;" horiz-adv-x="705" d="M39 242q0 110 82 260q70 127 82 152q37 81 53 163q9 47 10 86v51v41l-1 17h153v-22l3 -28q0 -81 0 -80q-1 -49 -12 -107q-6 -33 -23 -103q-19 -79 -106 -251q-60 -119 -60 -167q0 -45 27 -77.5t67 -32.5q37 0 76 41q35 36 66 112l157 -63q-79 -265 -297 -265 q-132 0 -204.5 72.5t-72.5 200.5zM243 1223v221h196v-221h-196z" />
<glyph unicode="&#xc0;" horiz-adv-x="870" d="M24 0l234 1440h275l233 -1440h-208l-45 317h-243l-47 -317h-199zM61 2110h223l90 -203h-141zM296 503h192l-77 631h-33z" />
<glyph unicode="&#xc1;" horiz-adv-x="870" d="M24 0l234 1440h275l233 -1440h-208l-45 317h-243l-47 -317h-199zM172 1907l89 203h225l-171 -203h-143zM296 503h192l-77 631h-33z" />
<glyph unicode="&#xc2;" horiz-adv-x="866" d="M24 0l234 1440h275l233 -1440h-208l-45 317h-243l-47 -317h-199zM248 1845l140 203h187l139 -203h-137l-95 116l-96 -116h-138zM296 503h192l-77 631h-33z" />
<glyph unicode="&#xc3;" horiz-adv-x="870" d="M24 0l234 1440h275l233 -1440h-208l-45 317h-243l-47 -317h-199zM188 1902v7q0 176 148 176q42 0 105.5 -31t87.5 -31q21 0 43 17q13 17 18 49h86v-6q0 -82 -41 -132q-15 -18 -54 -32q-42 -15 -77 -15q-18 0 -80 31q-27 13 -87 32q-52 0 -62 -65h-87zM296 503h192 l-77 631h-33z" />
<glyph unicode="&#xc4;" horiz-adv-x="865" d="M25 0l233 1440h275l233 -1440h-208l-45 317h-243l-47 -317h-198zM215 1880v183h162v-183h-162zM296 503h192l-77 631h-33zM485 1880v183h165v-183h-165z" />
<glyph unicode="&#xc5;" horiz-adv-x="866" d="M25 0l233 1442h275l233 -1442h-208l-45 317h-243l-47 -317h-198zM227 1679q0 70 49.5 120.5t119.5 50.5q65 0 116.5 -51t51.5 -120q0 -70 -49 -120t-119 -50q-72 0 -120.5 49t-48.5 121zM296 503h193l-78 632h-33zM318 1680q0 -32 20.5 -53t56.5 -26q34 0 56.5 22.5 t22.5 55.5q0 34 -23 57t-55 23q-68 0 -78 -79z" />
<glyph unicode="&#xc6;" horiz-adv-x="1168" d="M-48 0l442 1446h678v-192h-365v-404h266v-192h-266v-458h365v-200h-560v351h-249l-95 -351h-216zM311 534h198v637h-31z" />
<glyph unicode="&#xc7;" horiz-adv-x="873" d="M98 369v749q0 165 87 260q91 99 254 99q160 0 246 -105q79 -96 79 -260v-130h-210v151q0 161 -124 161q-60 0 -92 -40.5t-32 -120.5v-816q0 -164 124 -164q62 0 94 44q30 41 30 120v188h210v-142q0 -175 -78 -277q-87 -114 -256 -114q-162 0 -247 101.5t-85 295.5z M133 -261l57 -10l63 -4q36 -3 66 15q27 16 27 46q0 36 -33 55q-27 14 -82 15l53 128h47l-34 -79h31q191 0 191 -119q0 -122 -230 -122h-54q-20 2 -62 8q-18 3 -40 8v59z" />
<glyph unicode="&#xc8;" horiz-adv-x="784" d="M92 2110h223l90 -203h-142zM124 0v1440h563v-191h-359v-403h258v-191h-258v-456h359v-199h-563z" />
<glyph unicode="&#xc9;" horiz-adv-x="784" d="M124 0v1440h563v-191h-359v-403h258v-191h-258v-456h359v-199h-563zM203 1907l89 203h225l-172 -203h-142z" />
<glyph unicode="&#xca;" horiz-adv-x="784" d="M124 0v1440h563v-191h-359v-403h258v-191h-258v-456h359v-199h-563zM193 1894l140 203h187l139 -203h-138l-95 116l-95 -116h-138z" />
<glyph unicode="&#xcb;" horiz-adv-x="784" d="M124 0v1440h563v-191h-359v-403h258v-191h-258v-456h359v-199h-563zM159 1892v182h163v-182h-163zM430 1892v182h164v-182h-164z" />
<glyph unicode="&#xcc;" horiz-adv-x="467" d="M45 2036h223l90 -203h-142zM124 0v1440h208v-1440h-208z" />
<glyph unicode="&#xcd;" horiz-adv-x="470" d="M83 1870l88 203h225l-171 -203h-142zM124 0v1440h208v-1440h-208z" />
<glyph unicode="&#xce;" horiz-adv-x="467" d="M-39 1845l141 203h186l140 -203h-138l-95 116l-95 -116h-139zM124 0v1440h208v-1440h-208z" />
<glyph unicode="&#xcf;" horiz-adv-x="467" d="M39 1868v182h162v-182h-162zM124 0v1440h208v-1440h-208zM309 1868v182h165v-182h-165z" />
<glyph unicode="&#xd0;" horiz-adv-x="927" d="M20 679v148h112v619h311q265 0 328 -215q22 -73 22 -177v-654q0 -207 -82 -303.5t-260 -96.5h-319v679h-112zM336 196h123q126 0 126 164v706q0 96 -45 140t-142 44h-62v-423h115v-148h-115v-483z" />
<glyph unicode="&#xd1;" horiz-adv-x="954" d="M124 0v1440h185l322 -1021l20 5l-19 117l-6 78v821h190v-1440h-193l-315 959l-20 -4l18 -129l6 -74v-752h-188zM209 1915v6q0 176 148 176q43 0 104 -29q66 -33 88 -33t44 18q12 18 17 48h87v-6q0 -75 -36 -124q-39 -54 -112 -54q-43 0 -104 30q-28 13 -87 32 q-51 0 -63 -64h-86z" />
<glyph unicode="&#xd2;" d="M98 365v748q0 164 89 261t252 97q160 0 245 -104q80 -97 80 -260v-748q0 -175 -78 -277q-87 -113 -256 -113q-162 0 -247 101t-85 295zM137 2110h223l90 -203h-142zM306 313q0 -163 124 -163q62 0 93 42t31 121v815q0 160 -124 160q-60 0 -92 -40.5t-32 -119.5v-815z" />
<glyph unicode="&#xd3;" d="M98 365v748q0 164 89 261t252 97q160 0 245 -104q80 -97 80 -260v-748q0 -175 -78 -277q-87 -113 -256 -113q-162 0 -247 101t-85 295zM249 1907l88 203h224l-170 -203h-142zM306 313q0 -163 124 -163q62 0 93 42t31 121v815q0 160 -124 160q-60 0 -92 -40.5t-32 -119.5 v-815z" />
<glyph unicode="&#xd4;" d="M98 365v748q0 164 89 261t252 97q160 0 245 -104q80 -97 80 -260v-748q0 -175 -78 -277q-87 -113 -256 -113q-162 0 -247 101t-85 295zM116 1907l139 203h187l138 -203h-136l-96 116l-95 -116h-137zM306 313q0 -163 124 -163q62 0 93 42t31 121v815q0 160 -124 160 q-60 0 -92 -40.5t-32 -119.5v-815z" />
<glyph unicode="&#xd5;" d="M98 365v748q0 165 89 261.5t252 96.5q160 0 245 -104q80 -97 80 -260v-748q0 -175 -78 -277q-87 -113 -256 -113q-162 0 -247 101t-85 295zM104 1915v6q0 176 148 176q43 0 104 -30q66 -32 89 -32q21 0 44 18q12 18 17 48h85v-6q0 -75 -35 -123q-39 -55 -111 -55 q-44 0 -105 30q-28 13 -87 32q-52 0 -62 -64h-87zM306 313q0 -163 124 -163q62 0 93 42t31 121v815q0 160 -124 160q-60 0 -92 -40.5t-32 -119.5v-815z" />
<glyph unicode="&#xd6;" d="M98 365v748q0 165 89 261.5t252 96.5q160 0 245 -104q80 -97 80 -260v-748q0 -175 -78 -277q-87 -113 -256 -113q-162 0 -247 101t-85 295zM131 1917v182h163l-1 -182h-162zM306 313q0 -163 124 -163q62 0 93 42t31 121v815q0 160 -124 160q-60 0 -92 -40.5t-32 -119.5 v-815zM401 1917v182h164l1 -182h-165z" />
<glyph unicode="&#xd7;" horiz-adv-x="1529" d="M300 144l460 467l-460 468l104 105l458 -467l461 467l103 -105l-459 -468l459 -467l-103 -107l-461 469l-458 -469z" />
<glyph unicode="&#xd8;" horiz-adv-x="910" d="M76 -31l61 165q-19 45 -31 104q-9 41 -9 128v751q0 168 87 262q89 98 255 98q49 0 90.5 -11.5t97.5 -42.5l17 52h141l-61 -166q11 -27 19 -49q14 -57 21 -112v-788q0 -175 -78 -277q-87 -114 -256 -114q-57 0 -101 12q-47 12 -99 47l-17 -59h-137zM297 510l257 718 q-18 42 -49 60t-75 18q-59 0 -96 -34t-37 -94v-668zM307 221q43 -81 127 -81q130 0 130 151v648z" />
<glyph unicode="&#xd9;" horiz-adv-x="895" d="M108 365v1075h208v-1121q0 -63 37.5 -105.5t91.5 -42.5q122 0 122 148v1121h208v-1081q0 -220 -119 -321q-82 -69 -213 -69q-162 0 -248.5 102.5t-86.5 293.5zM157 2110h224l90 -203h-142z" />
<glyph unicode="&#xda;" horiz-adv-x="895" d="M108 365v1075h208v-1121q0 -63 37.5 -105.5t91.5 -42.5q122 0 122 148v1121h208v-1081q0 -220 -119 -321q-82 -69 -213 -69q-162 0 -248.5 102.5t-86.5 293.5zM269 1907l88 203h225l-171 -203h-142z" />
<glyph unicode="&#xdb;" horiz-adv-x="895" d="M108 365v1075h208v-1121q0 -63 37.5 -105.5t91.5 -42.5q122 0 122 148v1121h208v-1081q0 -220 -119 -321q-82 -69 -213 -69q-162 0 -248.5 102.5t-86.5 293.5zM135 1907l141 203h186l140 -203h-138l-95 116l-95 -116h-139z" />
<glyph unicode="&#xdc;" horiz-adv-x="895" d="M108 365v1075h208v-1121q0 -63 37.5 -105.5t91.5 -42.5q122 0 122 148v1121h208v-1081q0 -222 -121 -322q-81 -68 -211 -68q-162 0 -248.5 102.5t-86.5 293.5zM151 1917v182h163v-182h-163zM422 1917v182h164v-182h-164z" />
<glyph unicode="&#xdd;" horiz-adv-x="794" d="M-11 1440h204l145 -583h31l137 583h205l-256 -843v-597h-204v571zM85 1907l88 203h225l-171 -203h-142z" />
<glyph unicode="&#xde;" horiz-adv-x="872" d="M122 0v1446h204v-293h115q175 0 256.5 -98t81.5 -315q0 -169 -59 -287q-77 -152 -230 -152h-164v-301h-204zM326 493h98q86 0 118 54q29 51 29 188q0 128 -32 177t-123 49h-90v-468z" />
<glyph unicode="&#xdf;" horiz-adv-x="873" d="M-7 895v167h132l-2 73q0 166 68.5 238.5t218.5 72.5q273 0 273 -255q0 -77 -28 -123t-118 -89q128 -28 165.5 -84.5t37.5 -193.5v-372q0 -171 -58 -257.5t-172 -86.5q-39 0 -71 13q-32 5 -68 27v136l28 -14l32 -7q130 0 130 157v443q0 87 -29 121t-108 34h-53v168h49 q42 0 67 33t25 76q0 120 -106 120q-53 0 -77.5 -30.5t-24.5 -85.5v-1176h-179v895h-132z" />
<glyph unicode="&#xe0;" horiz-adv-x="765" d="M32 1389h224l90 -204h-142zM56 214q0 144 83.5 248t308.5 229v122q0 48 -18 80q-22 29 -59 30q-45 2 -72.5 -27t-27.5 -75v-50h-181v5l-3 15q0 129 83.5 214t206.5 85q256 0 256 -329v-462q0 -31 2 -94t2 -94q0 -58 12 -111h-178l-10 41l-8 100q-58 -81 -118 -118.5 t-114 -37.5q-75 0 -120 58t-45 171zM242 267q0 -57 18 -84q17 -33 54 -33q36 0 74.5 31t59.5 77v302q-121 -81 -163.5 -143t-42.5 -150z" />
<glyph unicode="&#xe1;" horiz-adv-x="771" d="M56 214q0 144 83.5 248t308.5 229v122q0 48 -18 80q-22 29 -59 30q-45 2 -72.5 -27t-27.5 -75v-50h-181v5l-3 15q0 129 83.5 214t206.5 85q256 0 256 -329v-462q0 -31 2 -94t2 -94q0 -58 12 -111h-178l-10 41l-8 100q-58 -81 -118 -118.5t-114 -37.5q-75 0 -120 58 t-45 171zM144 1185l89 204h224l-171 -204h-142zM242 267q0 -57 18 -84q17 -33 54 -33q36 0 74.5 31t59.5 77v302q-121 -81 -163.5 -143t-42.5 -150z" />
<glyph unicode="&#xe2;" horiz-adv-x="772" d="M56 214q0 145 83.5 248.5t308.5 228.5v122q0 48 -18 81q-22 29 -59 30q-45 1 -72.5 -28t-27.5 -75v-50h-181v5l-3 16q0 128 83.5 213t206.5 85q256 0 256 -329v-461q0 -32 2 -95t2 -94q0 -58 12 -111h-178l-10 41l-8 100q-58 -81 -118 -118.5t-114 -37.5q-75 0 -120 58 t-45 171zM133 1160l141 204h186l140 -204h-138l-95 116l-95 -116h-139zM242 267q0 -57 18 -84q17 -33 54 -33q36 0 74.5 31t59.5 77v302q-121 -81 -163.5 -142.5t-42.5 -150.5z" />
<glyph unicode="&#xe3;" horiz-adv-x="780" d="M56 214q0 144 83.5 248t308.5 229v122q0 48 -18 80q-22 29 -59 30q-45 2 -72.5 -27t-27.5 -75v-50h-181v5l-3 15q0 129 83.5 214t206.5 85q256 0 256 -329v-462q0 -31 2 -94t2 -94q0 -58 12 -111h-178l-10 41l-8 100q-58 -81 -118 -118.5t-114 -37.5q-75 0 -120 58 t-45 171zM184 1205v6q0 178 148 178q43 0 104 -30q66 -33 89 -33q22 0 43 18q13 17 18 49h86v-6q0 -76 -35 -124q-40 -56 -112 -56q-41 0 -105 31q-58 28 -87 32q-31 0 -44 -17.5t-18 -47.5h-87zM242 267q0 -57 18 -84q17 -33 54 -33q36 0 74.5 31t59.5 77v302 q-121 -81 -163.5 -143t-42.5 -150z" />
<glyph unicode="&#xe4;" horiz-adv-x="771" d="M56 214q0 144 83.5 248t309.5 229v122q0 48 -19 80q-22 29 -59 30q-45 1 -72.5 -27.5t-27.5 -74.5v-50h-181v5l-3 15q0 129 83.5 214t206.5 85q256 0 256 -329v-462q0 -31 2 -94t2 -94q0 -58 12 -111h-178l-10 41l-8 100q-58 -81 -118 -118.5t-114 -37.5q-75 0 -120 58 t-45 171zM161 1219v184h163v-184h-163zM242 267q0 -57 18 -84q17 -33 54 -33q36 0 74.5 31t60.5 77v301q-122 -80 -164.5 -142t-42.5 -150zM432 1219v184h164v-184h-164z" />
<glyph unicode="&#xe5;" horiz-adv-x="770" d="M57 214q0 145 82.5 248t308.5 228v122q0 48 -18 81q-22 28 -59 29q-100 3 -100 -102v-50h-181v5l-2 15q0 129 82.5 214t206.5 85q256 0 256 -329v-461q0 -31 2 -94t2 -94q0 -58 12 -111h-178l-10 41l-8 100q-58 -81 -118 -118.5t-114 -37.5q-164 0 -164 229zM219 1327 q0 74 49 122t119 48q72 0 120 -48.5t48 -121.5q0 -71 -49.5 -121.5t-118.5 -50.5q-72 0 -120 49.5t-48 122.5zM242 267q0 -58 18 -85q17 -32 54 -32q36 0 74.5 31t59.5 76v302q-121 -80 -163.5 -142t-42.5 -150zM310 1325q0 -32 23 -53q22 -24 54 -24q77 0 77 77 q0 33 -20 53.5t-56 25.5q-33 0 -55.5 -23t-22.5 -56z" />
<glyph unicode="&#xe6;" horiz-adv-x="1143" d="M60 215q0 146 80.5 248.5t313.5 230.5v122q0 98 -78 109q-58 0 -82 -41q-22 -35 -23 -110h-182q3 138 77 226q80 94 215 94q97 0 178 -66q27 20 44 30q61 36 139 36q274 0 274 -308v-268h-379v-215q0 -163 98 -163q54 0 78 33q14 19 18 76q2 21 2 54v65h183v-71 q0 -326 -276 -326q-79 0 -143 38.5t-118 133.5q-77 -87 -136 -121q-62 -37 -117 -37q-78 0 -122 59t-44 171zM246 270q0 -119 70 -119q53 0 97 45q24 24 41 63v303q-127 -87 -167.5 -145t-40.5 -147zM637 666h196v122q0 62 -22 101q-25 36 -76 36q-98 0 -98 -137v-122z" />
<glyph unicode="&#xe7;" horiz-adv-x="764" d="M8 -261l57 -10l63 -4q35 -2 66 15q28 16 28 47q0 69 -117 70l54 126h47l-35 -78h33q190 0 190 -118q0 -123 -230 -123h-54q-20 2 -62 8q-18 3 -40 8v59zM86 300v478q0 140 73 226q78 90 216 90q134 0 207 -88q68 -82 68 -219v-75h-186v77q0 72 -21 104.5t-74 32.5 q-50 0 -76 -34q-22 -39 -22 -103v-483q0 -85 19 -123q27 -39 77 -39q51 0 74 31t23 131v73h186v-79q0 -160 -74 -242.5t-213 -82.5q-126 0 -201.5 89t-75.5 236z" />
<glyph unicode="&#xe8;" horiz-adv-x="762" d="M24 1389h224l90 -204h-142zM86 296v486q0 133 79.5 220.5t211.5 87.5q137 0 208 -87q65 -80 65 -221v-266h-379v-214q0 -85 19 -123q27 -40 77 -40q51 0 75 33q22 30 22 130v65h186v-71q0 -161 -74 -243t-213 -82q-136 0 -210 97q-67 87 -67 228zM271 664h193v120 q0 73 -20 103q-22 34 -75 34q-50 0 -76 -33q-22 -39 -22 -104v-120z" />
<glyph unicode="&#xe9;" horiz-adv-x="762" d="M86 296v486q0 133 79.5 220.5t211.5 87.5q137 0 208 -87q65 -80 65 -221v-266h-379v-214q0 -85 19 -123q27 -40 77 -40q51 0 75 33q22 30 22 130v64h186v-70q0 -161 -74 -243t-213 -82q-136 0 -210 97q-67 87 -67 228zM271 664h193v120q0 73 -20 103q-22 34 -75 34 q-50 0 -76 -34q-22 -38 -22 -103v-120zM320 1209l89 204h225l-172 -204h-142z" />
<glyph unicode="&#xea;" horiz-adv-x="784" d="M86 295v487q0 133 79.5 220t211.5 87q137 0 208 -87q65 -80 65 -220v-267h-379v-213q0 -85 19 -123q27 -40 77 -40q51 0 75 33q22 30 22 130v64h186v-71q0 -160 -74 -242t-213 -82q-136 0 -210 97q-67 87 -67 227zM200 1234l139 204h187l139 -204h-138l-95 117l-95 -117 h-137zM271 663h193v121q0 73 -20 103q-22 34 -75 34q-50 0 -76 -34q-22 -38 -22 -103v-121z" />
<glyph unicode="&#xeb;" horiz-adv-x="760" d="M86 295v487q0 133 79.5 220t211.5 87q137 0 208 -87q65 -80 65 -220v-267h-379v-213q0 -85 19 -123q27 -40 77 -40q64 0 85 53q13 32 13 110v64h185v-71q0 -160 -74 -242t-213 -82q-136 0 -210 97q-67 87 -67 227zM166 1257v182h162v-182h-162zM271 663h194v121 q0 71 -22 104t-74 33q-50 0 -76 -34q-22 -38 -22 -103v-121zM436 1257v182h165v-182h-165z" />
<glyph unicode="&#xec;" horiz-adv-x="471" d="M49 1401h223l90 -205h-142zM106 0v1062h181v-1062h-181z" />
<glyph unicode="&#xed;" horiz-adv-x="486" d="M62 1221l89 205h225l-172 -205h-142zM106 0v1062h181v-1062h-181z" />
<glyph unicode="&#xee;" horiz-adv-x="523" d="M-34 1196l140 205h186l140 -205h-138l-95 116l-95 -116h-138zM106 0v1062h181v-1062h-181z" />
<glyph unicode="&#xef;" horiz-adv-x="505" d="M-43 1183v183h162v-183h-162zM107 0v1063h180v-1063h-180zM227 1183v183h165v-183h-165z" />
<glyph unicode="&#xf0;" horiz-adv-x="766" d="M86 265v510q0 126 80 198q77 68 205 68h15l38 -4q-22 41 -30 56q-12 24 -21 39q-23 33 -65 80l-162 -130l-42 63l155 123l-48 52l-62 63l80 88l58 -49l75 -73l150 122l46 -61l-145 -115q119 -133 174 -271.5t55 -300.5v-463q0 -133 -73.5 -210t-205.5 -77 q-122 0 -199.5 80.5t-77.5 211.5zM271 244q0 -44 25 -74t67 -30q43 0 69.5 30t26.5 74v560q0 38 -28.5 63.5t-67.5 25.5q-92 0 -92 -89v-560z" />
<glyph unicode="&#xf1;" horiz-adv-x="774" d="M20 1193v6q0 81 41 131q38 47 107 47q43 0 104 -30q66 -33 89 -33q21 0 44 17q13 19 17 50h86v-7q0 -75 -35 -124q-40 -55 -112 -55q-41 0 -105 31q-28 13 -87 31q-52 0 -62 -64h-87zM106 0v1062h181v-132q47 49 73 73q22 21 55 40q57 35 110 35q129 0 129 -182v-896 h-178l-1 807q0 52 -12 74q-15 21 -51 21q-25 0 -61 -24q-26 -17 -38 -33q-13 -11 -26 -31v-814h-181z" />
<glyph unicode="&#xf2;" horiz-adv-x="762" d="M-1 1389h224l90 -204h-142zM86 265v561q0 125 81 196q78 68 204 68q120 0 195.5 -75.5t75.5 -195.5v-559q0 -132 -73.5 -209.5t-205.5 -77.5q-122 0 -199.5 80.5t-77.5 211.5zM271 244q0 -44 25 -74t67 -30q43 0 69.5 30t26.5 74v590q0 39 -28.5 64t-67.5 25 q-83 0 -92 -88v-591z" />
<glyph unicode="&#xf3;" horiz-adv-x="763" d="M86 265v561q0 124 81 196q78 68 204 68q120 0 195.5 -75.5t75.5 -195.5v-559q0 -132 -73.5 -209.5t-205.5 -77.5q-122 0 -199.5 80.5t-77.5 211.5zM271 244q0 -44 25 -74t67 -30q43 0 69.5 30t26.5 74v590q0 38 -28.5 63.5t-67.5 25.5q-83 0 -92 -88v-591zM333 1196 l88 205h225l-172 -205h-141z" />
<glyph unicode="&#xf4;" horiz-adv-x="772" d="M86 265v561q0 125 81 196q78 68 204 68q120 0 195.5 -75.5t75.5 -195.5v-559q0 -132 -73.5 -209.5t-205.5 -77.5q-122 0 -199.5 80.5t-77.5 211.5zM163 1185l139 204h187l140 -204h-138l-95 116l-96 -116h-137zM271 244q0 -44 25 -74t67 -30q43 0 69.5 30t26.5 74v590 q0 39 -28.5 64t-67.5 25q-83 0 -92 -88v-591z" />
<glyph unicode="&#xf5;" horiz-adv-x="762" d="M86 265v561q0 125 81 196q78 68 204 68q120 0 195.5 -75.5t75.5 -195.5v-559q0 -132 -73.5 -209.5t-205.5 -77.5q-122 0 -199.5 80.5t-77.5 211.5zM127 1193v6q0 81 41 131q38 47 107 47q39 0 105 -31.5t87 -31.5q22 0 44 17q13 19 17 50h87v-7q0 -76 -35 -124 q-40 -55 -113 -55q-41 0 -104 31q-55 26 -87 31q-51 0 -63 -64h-86zM271 244q0 -44 25 -74t67 -30q43 0 69.5 30t26.5 74v590q0 39 -28.5 64t-67.5 25q-83 0 -92 -88v-591z" />
<glyph unicode="&#xf6;" horiz-adv-x="762" d="M86 265v561q0 124 81 196q78 68 204 68q120 0 195.5 -75.5t75.5 -195.5v-559q0 -132 -73.5 -209.5t-205.5 -77.5q-122 0 -199.5 80.5t-77.5 211.5zM154 1219v184h162v-184h-162zM271 244q0 -44 25 -74t67 -30q95 0 95 104v590q0 39 -28 64t-67 25q-83 0 -92 -88v-591z M423 1219v184h165v-184h-165z" />
<glyph unicode="&#xf7;" horiz-adv-x="1461" d="M263 538v148h1179v-148h-1179zM727 222q0 54 36.5 92t90.5 38q55 0 91 -37.5t36 -92.5q0 -53 -36.5 -90.5t-90.5 -37.5q-53 0 -90 37.5t-37 90.5zM727 996q0 54 37 93.5t90 39.5q54 0 90.5 -39.5t36.5 -93.5q0 -52 -36.5 -89.5t-90.5 -37.5q-53 0 -90 37.5t-37 89.5z" />
<glyph unicode="&#xf8;" horiz-adv-x="793" d="M58 -47l64 152q-18 29 -26 63l-10 43v618q0 125 81 197q77 68 204 68q49 0 77 -7.5t74 -34.5l21 44h118l-55 -132q19 -31 26.5 -62.5t9.5 -48.5v-612q0 -124 -79 -196t-204 -72q-45 0 -75 10q-17 5 -40 13q-9 4 -40 23l-28 -66h-118zM265 414l192 458q-7 34 -32 51 q-24 14 -60 14t-72 -26q-28 -28 -28 -67v-430zM273 196q7 -32 33.5 -47t58.5 -16q36 -1 67 24.5t31 67.5v428z" />
<glyph unicode="&#xf9;" horiz-adv-x="768" d="M28 1389h224l90 -204h-142zM102 167v895h179v-820q0 -84 63 -84q42 0 97 56l15 16q7 7 15 16v816h179v-1062h-179v138q-66 -84 -127.5 -119.5t-111.5 -35.5q-130 0 -130 184z" />
<glyph unicode="&#xfa;" horiz-adv-x="772" d="M102 167v895h179v-820q0 -84 63 -84q42 0 97 56l15 16q7 7 15 16v816h179v-1062h-179v138q-66 -84 -127.5 -119.5t-111.5 -35.5q-130 0 -130 184zM324 1185l89 204h225l-172 -204h-142z" />
<glyph unicode="&#xfb;" horiz-adv-x="775" d="M102 167v895h179v-820q0 -84 63 -84q42 0 97 56l15 16q7 7 15 16v816h179v-1062h-179v138q-66 -84 -127.5 -119.5t-111.5 -35.5q-130 0 -130 184zM130 1234l139 204h187l140 -204h-138l-95 116l-95 -116h-138z" />
<glyph unicode="&#xfc;" horiz-adv-x="776" d="M102 167v895h179v-820q0 -84 63 -84q42 0 97 56l15 16q7 7 15 16v816h179v-1062h-179v138q-66 -84 -127.5 -119.5t-111.5 -35.5q-130 0 -130 184zM195 1207v183h162v-183h-162zM464 1207v183h166l-1 -183h-165z" />
<glyph unicode="&#xfd;" horiz-adv-x="730" d="M30 1063h167l123 -692h25l100 692h178l-223 -1142q-26 -136 -84 -193q-65 -64 -197 -64h-43l-27 1v173h27q171 0 171 182zM35 1186l89 203h225l-171 -203h-143z" />
<glyph unicode="&#xfe;" horiz-adv-x="775" d="M106 -336v1782h181v-486q44 53 63 69t38 25q41 24 98 24q170 0 170 -231v-596q0 -127 -47 -194.5t-136 -67.5q-44 0 -85.5 24t-100.5 96v-445h-181zM287 191q34 -35 57 -43q14 -6 34 -9q45 0 71 34q22 28 22 90v557q0 58 -19 82t-61 24q-49 0 -104 -53v-682z" />
<glyph unicode="&#xff;" horiz-adv-x="735" d="M31 1063h166l123 -692h25l100 692h178l-223 -1142q-26 -136 -84 -193q-65 -64 -197 -64h-43l-27 1v173h27q127 0 161 99q11 30 11 83zM126 1233v182h163v-182h-163zM397 1233v182h165v-182h-165z" />
<glyph unicode="&#x152;" horiz-adv-x="1215" d="M98 366v751q0 165 87 261q91 99 254 99h28q13 0 38 -5.5t77 -25.5h535v-192h-359v-404h260v-192h-260v-458h359v-200h-534l-82 -23q-26 -8 -71 -8q-160 0 -246 102.5t-86 294.5zM306 299q0 -92 65 -132q28 -17 63 -17q120 0 120 147v870q0 57 -35 90q-29 37 -89 37 q-54 0 -89 -34.5t-35 -92.5v-868z" />
<glyph unicode="&#x153;" horiz-adv-x="1147" d="M86 266v563q0 125 81 197q77 68 204 68q36 0 53 -2q22 -2 43 -15q46 -15 89 -51q55 38 88 49q55 19 104 19q272 0 272 -308v-268h-378v-215q0 -163 98 -163q53 0 77 33q9 12 17 52q3 34 3 78v65h183v-71q0 -326 -276 -326q-39 0 -55 2t-52.5 15.5t-79.5 50.5 q-44 -37 -89 -52q-48 -16 -105 -16q-124 0 -200.5 81t-76.5 214zM271 245q0 -43 24 -75q29 -30 68 -30q43 0 69.5 30.5t26.5 74.5v592q0 39 -28.5 64.5t-67.5 25.5q-83 0 -92 -89v-593zM642 666h195v122q0 64 -22 103q-27 36 -75 36q-50 0 -74 -33t-24 -106v-122z" />
<glyph unicode="&#x178;" horiz-adv-x="794" d="M-33 1917v182h163v-182h-163zM-11 1440h204l145 -583h31l137 583h205l-256 -843v-597h-204v571zM238 1917v182h164v-182h-164z" />
<glyph unicode="&#x2c6;" horiz-adv-x="863" d="M278 1168l141 221h187l139 -221h-138l-95 126l-95 -126h-139z" />
<glyph unicode="&#x2dc;" horiz-adv-x="882" d="M267 1176v7q0 87 42 142q39 52 107 52q43 0 104 -34q66 -35 89 -35q21 0 43 19q13 20 18 54h86v-8q0 -79 -33 -132q-40 -63 -114 -63q-42 0 -105 33q-55 30 -87 35q-52 0 -62 -70h-88z" />
<glyph unicode="&#x2000;" horiz-adv-x="1055" />
<glyph unicode="&#x2001;" horiz-adv-x="2110" />
<glyph unicode="&#x2002;" horiz-adv-x="1055" />
<glyph unicode="&#x2003;" horiz-adv-x="2110" />
<glyph unicode="&#x2004;" horiz-adv-x="703" />
<glyph unicode="&#x2005;" horiz-adv-x="527" />
<glyph unicode="&#x2006;" horiz-adv-x="351" />
<glyph unicode="&#x2007;" horiz-adv-x="351" />
<glyph unicode="&#x2008;" horiz-adv-x="263" />
<glyph unicode="&#x2009;" horiz-adv-x="422" />
<glyph unicode="&#x200a;" horiz-adv-x="117" />
<glyph unicode="&#x2010;" horiz-adv-x="686" d="M89 457v152h456v-152h-456z" />
<glyph unicode="&#x2011;" horiz-adv-x="686" d="M89 457v152h456v-152h-456z" />
<glyph unicode="&#x2012;" horiz-adv-x="686" d="M89 457v152h456v-152h-456z" />
<glyph unicode="&#x2013;" horiz-adv-x="1155" d="M9 467v133h1005v-133h-1005z" />
<glyph unicode="&#x2014;" horiz-adv-x="2179" d="M9 467v133h2029v-133h-2029z" />
<glyph unicode="&#x2018;" horiz-adv-x="447" d="M124 962v225l110 259h81l-76 -267h79v-217h-194z" />
<glyph unicode="&#x2019;" horiz-adv-x="446" d="M124 1230v216h194v-224l-111 -260h-80l75 268h-78z" />
<glyph unicode="&#x201a;" horiz-adv-x="447" d="M124 11v217h194v-225l-111 -259h-80l75 267h-78z" />
<glyph unicode="&#x201c;" horiz-adv-x="746" d="M124 962v225l110 259h81l-76 -267h79v-217h-194zM421 962v225l112 259h81l-76 -267h79v-217h-196z" />
<glyph unicode="&#x201d;" horiz-adv-x="745" d="M124 1230v216h194v-224l-111 -260h-80l75 268h-78zM421 1230v216h196v-224l-111 -260h-82l77 268h-80z" />
<glyph unicode="&#x201e;" horiz-adv-x="746" d="M124 11v217h194v-225l-111 -259h-80l75 267h-78zM421 11v217h196v-225l-111 -259h-82l77 267h-80z" />
<glyph unicode="&#x2022;" horiz-adv-x="1016" d="M316 762q0 121 84 208t204 87q121 0 203 -86.5t82 -208.5t-83 -209.5t-204 -87.5q-117 0 -201.5 88t-84.5 209z" />
<glyph unicode="&#x2026;" horiz-adv-x="3500" d="M372 0v228h194v-228h-194zM1768 0v228h194v-228h-194zM3169 0v228h194v-228h-194z" />
<glyph unicode="&#x202f;" horiz-adv-x="422" />
<glyph unicode="&#x2039;" horiz-adv-x="510" d="M87 531l142 317h152l-135 -317l135 -316h-151z" />
<glyph unicode="&#x203a;" horiz-adv-x="513" d="M91 215l135 316l-135 317h151l143 -317l-143 -316h-151z" />
<glyph unicode="&#x205f;" horiz-adv-x="527" />
<glyph unicode="&#x2122;" horiz-adv-x="1548" d="M236 1383v77h446v-77h-167v-465h-109v465h-170zM819 918v542h153l149 -393l140 393h153v-542h-95v491l-177 -491h-45l-183 490v-490h-95z" />
<glyph unicode="&#x25fc;" horiz-adv-x="1065" d="M0 0v1065h1065v-1065h-1065z" />
</font>
</defs>
</svg>
