<?xml version="1.0" standalone="no"?>
<!DOCTYPE svg PUBLIC "-//W3C//DTD SVG 1.1//EN" "http://www.w3.org/Graphics/SVG/1.1/DTD/svg11.dtd" >
<svg xmlns="http://www.w3.org/2000/svg">
<metadata></metadata>
<defs>
<font id="lhf_charlotteregular" horiz-adv-x="1228" >
<font-face units-per-em="2048" ascent="1638" descent="-410" />
<missing-glyph horiz-adv-x="446" />
<glyph horiz-adv-x="2048" />
<glyph horiz-adv-x="2048" />
<glyph unicode="&#xd;" horiz-adv-x="446" />
<glyph unicode=" "  horiz-adv-x="446" />
<glyph unicode="&#x09;" horiz-adv-x="446" />
<glyph unicode="&#xa0;" horiz-adv-x="446" />
<glyph unicode="!" horiz-adv-x="280" d="M61 1149l56 -920h73l15 996zM72 59l82 91l82 -91l-82 -92z" />
<glyph unicode="&#x22;" horiz-adv-x="440" d="M0 1124q-2 15 8 19l133 39q10 2 15 -2q2 -4 0 -13l-64 -340q-2 -10 -10 -14l-16 -8q-8 -2 -11 6zM178 1126q-2 17 8 21l133 37q12 4 15 -2q2 -4 0 -13l-64 -340q-2 -8 -10 -12l-16 -8q-8 -4 -11 6z" />
<glyph unicode="#" horiz-adv-x="610" d="M4 616l10 66h158l21 131h-156l8 66h158l24 163h66l-25 -163h113l25 163h65l-25 -163h160l-10 -66h-160l-20 -131h159l-10 -66h-159l-25 -153h-66l25 153h-115l-22 -153h-66l25 153h-158zM236 682h114l21 131h-113z" />
<glyph unicode="$" horiz-adv-x="790" d="M0 156l51 71q104 -92 223 -188l33 475q-113 80 -162 137q-70 84 -65 176q4 100 84 175t182 85l2 41l49 5l-2 -43q94 -4 189 -54v-104q-53 115 -174 115q-8 0 -19 -3l-24 -401q61 -43 104 -80q215 -180 215 -311q0 -18 -4 -37q-39 -215 -356 -215l-7 -96l-55 -4l8 100 l-30 2q-100 4 -242 154zM186 870q-4 -63 33 -110q27 -35 98 -84l25 360q-68 -16 -110 -64t-46 -102zM328 31q100 -4 178 52t69 138q-6 72 -71 139q-43 45 -148 119z" />
<glyph unicode="%" horiz-adv-x="1667" d="M0 786q0 137 103.5 234.5t246.5 97.5t245.5 -97.5t102.5 -234.5t-102 -234t-246 -97q-143 0 -246.5 97t-103.5 234zM76 788q0 -127 80 -217t192 -88q111 0 193 88t82 209q0 139 -70 223t-205 89q-123 2 -197.5 -86t-74.5 -218zM449 -39l624 1184l45 2l-626 -1188z M862 332q0 137 103.5 234.5t246.5 97.5q145 0 247 -97.5t102 -234.5t-101.5 -234.5t-247.5 -97.5q-143 0 -246.5 97.5t-103.5 234.5zM938 334q0 -127 81 -217t193 -88q109 0 191 88t82 209q0 139 -69.5 223t-203.5 88q-125 2 -199.5 -86t-74.5 -217z" />
<glyph unicode="&#x26;" horiz-adv-x="1646" d="M0 487q4 285 270 422q-10 41 -10 88q0 236 264 283q20 4 41 4q76 0 162 -45q68 -37 111 -82l-37 -82q-92 158 -236 158q-25 0 -47 -6q-139 -39 -139 -193q0 -20 2 -39q33 -88 108 -190q186 -244 568 -508q61 80 61 250q0 61 -10 133h-289l25 59h663l-30 -57h-291 q6 -37 6 -86q0 -178 -88 -332l334 -223l102 -41h-323l-213 141q-233 -158 -422 -159q-248 -2 -417 144t-165 361zM104 551q0 -156 144 -293q182 -172 399 -172q166 0 307 92q-442 303 -665 676q-184 -123 -185 -303z" />
<glyph unicode="'" horiz-adv-x="307" d="M0 1141l100 112l103 -112l-152 -168l-24 24l41 45q6 11 0 25z" />
<glyph unicode="(" horiz-adv-x="497" d="M6 655q0 -391 189 -778q-78 301 -78 758q-1 373 67 731q-84 -131 -135 -344q-43 -190 -43 -367z" />
<glyph unicode=")" horiz-adv-x="497" d="M307 -123q78 301 78 758q0 373 -68 731q84 -131 136 -344q43 -190 43 -367q0 -391 -189 -778z" />
<glyph unicode="*" horiz-adv-x="421" d="M27 1196q-6 4 0 6l32 33q6 2 11 0l104 -115l-16 140q0 6 6 6h49q6 0 4 -6l-16 -138l104 113q4 4 8 0l35 -29q6 -4 0 -8l-139 -100l137 -99q6 -4 0 -8l-33 -30q-4 -2 -10 0l-102 112l16 -153q2 -6 -6 -7h-47q-8 0 -6 7l18 153l-102 -112q-4 -2 -8 0l-35 30q-6 4 0 8 l135 99z" />
<glyph unicode="+" horiz-adv-x="632" d="M20 518h205v-215h60v215h202v60h-202v231h-60v-231h-205v-60z" />
<glyph unicode="," horiz-adv-x="307" d="M0 14l100 113l103 -113l-152 -168l-24 25l41 45q6 11 0 25z" />
<glyph unicode="-" horiz-adv-x="630" d="M0 471h539v92h-539v-92z" />
<glyph unicode="." horiz-adv-x="307" d="M0 14l100 113l103 -113l-103 -112z" />
<glyph unicode="/" horiz-adv-x="509" d="M-31 -211l514 1657h66l-506 -1657h-74z" />
<glyph unicode="0" horiz-adv-x="851" d="M0 530q0 229 109.5 392t263.5 163q156 0 265.5 -163t109.5 -392t-110 -392t-265 -163q-154 0 -263.5 163t-109.5 392zM127 530q0 -205 71.5 -349t174.5 -144q102 0 173 144t75 349q2 201 -72 347.5t-176 146.5t-174 -144.5t-72 -349.5z" />
<glyph unicode="1" horiz-adv-x="270" d="M0 971l154 102v-1055q0 -10 12 -18h-164q12 8 12 18v945q-2 4 -14 8z" />
<glyph unicode="2" horiz-adv-x="839" d="M0 0q55 51 266 223q135 113 211 205q105 125 117 301q8 125 -51.5 205t-173.5 80q-104 0 -183 -94q-70 -86 -65 -164q8 -150 110 -224q6 -4 21 -6l-113 -118q0 6 -6 20q-43 57 -84 113q-51 86 -41 202q12 137 116.5 234.5t244.5 91.5q176 -8 272 -102.5t92 -243.5 q-2 -106 -61 -195q-35 -55 -133 -147q-82 -66 -287 -240h463q10 0 18 11l-59 -164q-8 12 -21 12h-653z" />
<glyph unicode="3" horiz-adv-x="774" d="M0 213l47 18q41 -172 254 -178q76 -2 152 56q90 70 92 184q4 160 -160 203h-221q-12 0 -21 -13v164q8 -10 21 -10h211q109 51 108 174q0 29 -4 55q-39 158 -184 164q-88 4 -146.5 -57.5t-54.5 -147.5h-53q27 236 268 254q88 8 162 -26q109 -51 133 -176q4 -23 4 -43 q0 -135 -151 -220q201 -74 213 -305q6 -123 -95 -217q-102 -100 -251 -100q-227 0 -324 221z" />
<glyph unicode="4" horiz-adv-x="829" d="M0 285v69l547 719h71q-10 -8 -10 -18v-631h97q12 0 18 12v-164q-6 12 -18 13h-97v-267q0 -10 10 -18h-161q10 8 10 18v267h-467zM131 424h336v444z" />
<glyph unicode="5" horiz-adv-x="819" d="M0 240l43 18q8 -90 81 -153.5t171 -63.5q123 0 209 86t86 207q0 123 -92 211q-104 100 -279 100q-35 0 -72 -4l58 432h485q12 0 21 12v-163q-8 10 -21 10h-442l-23 -162q229 -4 365 -121q123 -111 123 -278q0 -158 -108.5 -270.5t-264.5 -112.5q-279 0 -340 252z" />
<glyph unicode="6" horiz-adv-x="841" d="M0 340q0 141 125 334q123 186 420 497h84q-94 -88 -174 -174q-188 -203 -271 -350q-86 -154 -86 -239q0 -31 6 -64q43 -223 271 -276q27 -6 53 -7q86 0 141 62q59 70 62 190q2 166 -142 260q-121 78 -264 74l94 123q199 -35 308 -137q113 -109 110 -268 q-4 -164 -126 -276t-265 -101q-145 8 -242 102q-104 98 -104 250z" />
<glyph unicode="7" horiz-adv-x="864" d="M0 922l68 161q8 -10 20 -10h672l-606 -1091h-101q16 2 39 30l510 920h-582q-12 0 -20 -10z" />
<glyph unicode="8" horiz-adv-x="792" d="M2 252q-10 80 29 154q61 113 219 178q-176 115 -170 274q4 72 70 137q78 78 194 86q113 6 200 -59.5t87 -157.5q2 -80 -51 -135q-35 -37 -150 -108q258 -164 258 -334q0 -137 -106 -224q-99 -77 -238 -77q-143 0 -235.5 70.5t-106.5 195.5zM102 295q12 -240 250 -258 q94 -8 163 51t69 156q0 14 -2 30q-14 111 -295 285q-195 -88 -185 -264zM178 883q8 -100 217 -240q140 84 140 231q0 55 -48 105q-55 57 -135 53q-82 -4 -131 -48t-43 -101z" />
<glyph unicode="9" horiz-adv-x="806" d="M0 735q4 160 117 262q104 96 237 86q152 -10 250 -108t98 -244q0 -164 -116 -342q-123 -186 -385 -428h-109q96 68 176 137q190 168 275 318q66 117 65 221q0 141 -88 247.5t-227 106.5q-86 0 -148 -51q-70 -61 -71 -174q-2 -131 112 -217q106 -82 258 -82q45 0 91 8 l-74 -139q-223 6 -346 121q-119 109 -115 278z" />
<glyph unicode=":" horiz-adv-x="309" d="M0 82l100 113l103 -113l-103 -113zM2 592l100 113l101 -113l-101 -111z" />
<glyph unicode=";" horiz-adv-x="307" d="M0 12l100 111l103 -111l-152 -168l-24 25l41 43q6 13 0 27zM0 535l100 112l103 -112l-103 -113z" />
<glyph unicode="&#x3c;" horiz-adv-x="425" d="M0 573l319 320v-88l-229 -230l229 -231v-90z" />
<glyph unicode="=" horiz-adv-x="528" d="M0 379v90h442v-90h-442zM0 543v90h442v-90h-442z" />
<glyph unicode="&#x3e;" horiz-adv-x="425" d="M0 244v88l231 229l-231 234v88l319 -320z" />
<glyph unicode="?" horiz-adv-x="817" d="M0 829q6 8 4 29q-14 174 94 285q102 102 258 102q147 0 251 -100.5t104 -243.5q0 -119 -115 -233q-96 -98 -205 -136v-301h-59v314q123 84 162 133q69 88 79 240q6 98 -57 186q-70 94 -168 92q-92 -2 -154.5 -64.5t-62.5 -156.5q0 -23 4 -47q2 -12 23 -27zM276 59l82 93 l82 -93l-82 -90z" />
<glyph unicode="@" horiz-adv-x="1435" d="M-6 588q0 305 229 512q219 201 527 200q260 0 421 -135q174 -143 175 -399q0 -256 -172 -414q-98 -88 -203 -88q-152 0 -160 170q-92 -170 -242 -170q-104 0 -161 84q-51 74 -52 180q0 150 116 288t261 138q139 0 172 -155l43 141h105l-133 -473q-14 -47 -15 -80 q0 -90 78 -90q33 0 86 27q117 55 182 188q59 119 60 260q0 236 -160 371q-152 125 -389 125q-305 0 -493.5 -200t-188.5 -505q0 -344 289 -493q162 -84 352 -84q264 0 481 159l25 -24q-233 -172 -512 -172q-397 0 -598 260q-123 162 -123 379zM459 463q0 -162 121 -162 q123 0 213 168q80 150 79 285q0 66 -37 118t-100 52q-121 0 -215 -217q-61 -143 -61 -244z" />
<glyph unicode="A" horiz-adv-x="1259" d="M0 0q16 6 29 14q33 20 43 47l432 986l-41 92l92 149l545 -1233q10 -23 53 -55h-217q14 33 4 55l-180 408h-457l-178 -406q-6 -12 -6 -22q0 -23 24 -35h-143zM326 518h411l-207 469z" />
<glyph unicode="B" horiz-adv-x="866" d="M0 0q29 33 29 55v1147q0 23 -29 55h330q139 0 223 -71q98 -84 98 -240q0 -190 -209 -270q90 -14 158 -51q158 -86 160 -271v-7q0 -142 -80 -232q-102 -115 -318 -115h-362zM186 57h189q94 0 170 79t78 194v6q0 115 -74 201q-76 88 -180 88h-183v-568zM186 690h95 q82 0 157 66q23 18 42.5 79.5t19.5 129.5q0 137 -88 202q-39 31 -119 31h-107v-508z" />
<glyph unicode="C" horiz-adv-x="1273" d="M0 627v17q0 261 180 441q193 195 492 195q219 0 358 -49l88 -14l2 -123q-127 129 -368 129q-252 0 -430.5 -173t-178.5 -415t178.5 -412t430.5 -170q274 0 415 119l-34 -131q-242 -61 -449 -61q-281 0 -478.5 188t-205.5 459z" />
<glyph unicode="D" horiz-adv-x="1341" d="M0 0q29 33 29 55v1145q0 23 -29 57h565q270 0 465 -174q199 -180 207 -444v-15q-1 -252 -193 -436q-198 -188 -471 -188h-573zM188 55h377q174 0 336 148q188 170 191 430v11q0 239 -177 405q-161 151 -350 151h-2h-373z" />
<glyph unicode="E" horiz-adv-x="720" d="M0 0q29 33 29 55v1145q0 23 -29 57h580v-102q-27 45 -52 45h-340v-563h340q37 0 52 45v-147q-27 45 -52 45h-340v-525h349q39 0 79 47l-28 -102h-588z" />
<glyph unicode="F" horiz-adv-x="686" d="M0 0q29 31 29 55v1145q0 25 -29 57l580 -2v-100q-8 45 -52 45h-340v-563h340q39 0 52 45v-147q-8 45 -52 45h-340v-525q0 -25 29 -55h-217z" />
<glyph unicode="G" horiz-adv-x="1265" d="M0 618v17q0 261 180 446q193 199 492 199q219 0 358 -49l88 -14l2 -123q-72 74 -170 100q-70 20 -198 23h-18q-264 0 -429 -173q-162 -166 -162 -417q0 -240 178.5 -411t430.5 -171q127 0 219 31v479q0 23 -27 57h215q-26 -34 -26 -57v-498q-295 -80 -447 -80 q-283 0 -480.5 186.5t-205.5 454.5z" />
<glyph unicode="H" horiz-adv-x="1298" d="M0 0q29 33 29 55v1145q0 23 -29 57h217q-29 -35 -29 -57v-481h816v481q0 23 -27 57h215q-27 -34 -27 -57v-1145q0 -23 27 -55h-215q27 33 27 55v609h-816v-609q0 -23 29 -55h-217z" />
<glyph unicode="I" horiz-adv-x="321" d="M0 0q29 33 29 55v1145q0 23 -29 57h217q-29 -34 -29 -57v-1145q0 -23 29 -55h-217z" />
<glyph unicode="J" horiz-adv-x="567" d="M0 176h98q-20 -14 -14 -39q20 -86 92 -92q9 -1 17 -1q81 0 81 93v1063q0 23 -28 57h217q-29 -35 -29 -57v-1026q0 -82 -55 -138t-141 -56h-2q-164 0 -209 157q-4 16 -27 39z" />
<glyph unicode="K" horiz-adv-x="1124" d="M0 0q29 33 29 55v1145q0 23 -29 57h217q-29 -35 -29 -57v-543l514 529q12 14 12 37q0 15 -5 34h180q-31 -16 -82 -57l-492 -502l623 -643q23 -23 82 -55h-299q14 35 -6 57l-527 545v-547q0 -23 29 -55h-217z" />
<glyph unicode="L" horiz-adv-x="759" d="M0 0q29 31 29 55v1145q0 25 -29 57h217q-29 -33 -29 -57v-1145h387q43 0 80 47l-28 -102h-627z" />
<glyph unicode="M" horiz-adv-x="1583" d="M0 0q12 6 20 14q23 20 25 47l113 1104q2 23 -19.5 51.5t-46.5 40.5h203q-12 -35 -2 -57l434 -967l432 971q2 23 -35 53h224q-23 -35 -21 -57l115 -1145q2 -23 35 -55h-224q29 31 27 53l-102 1039l-500 -1115l-477 1065l-99 -987v-6q0 -33 41 -49h-143z" />
<glyph unicode="N" horiz-adv-x="1363" d="M0 1257h254q-8 -16 -8 -34q0 -12 4 -23l907 -936v938q0 39 -43 55h143q-45 -18 -45 -61v-1219l-1093 1135v-1057q0 -39 41 -55h-142q47 18 48 61v1104q-23 57 -66 92z" />
<glyph unicode="O" horiz-adv-x="1474" d="M0 629q0 270 201.5 460.5t486.5 190.5q283 0 482.5 -190.5t199.5 -460.5q0 -268 -199.5 -460t-482.5 -192q-285 0 -486.5 191.5t-201.5 460.5zM150 631q0 -246 156 -423q155 -175 373 -175h5q217 2 377 173.5t160 409.5q0 272 -134 433q-139 172 -403 176h-16 q-231 0 -377 -170q-141 -168 -141 -424z" />
<glyph unicode="P" horiz-adv-x="874" d="M0 0q29 33 29 55v1147q0 23 -29 55h408q119 0 219 -71q127 -92 141 -268q1 -14 1 -28q-1 -139 -93 -245q-102 -117 -246 -117q-59 0 -117 23q84 16 146 55q147 94 153 285v12q0 141 -88 227q-78 78 -178 78h-158v-1153q0 -23 29 -55h-217z" />
<glyph unicode="Q" horiz-adv-x="1523" d="M0 629q0 270 203 460.5t485 190.5q283 0 482.5 -190.5t199.5 -460.5q0 -301 -240 -496q189 -184 289 -188q-57 -29 -131 -29q-152 0 -291 133q-143 -72 -309 -72q-283 0 -485.5 191.5t-202.5 460.5zM150 631q0 -246 158 -423q155 -175 371 -175h5q217 2 377 173.5 t160 409.5q0 272 -131 433q-141 172 -406 176h-16q-231 0 -375 -170q-143 -168 -143 -424z" />
<glyph unicode="R" horiz-adv-x="1048" d="M0 0q29 33 29 55v1147q0 23 -29 55h279q174 0 299 -90q133 -95 133 -241q0 -79 -47 -160q-63 -111 -193 -162q94 -174 350 -424q179 -174 285 -176q-49 -20 -113 -20q-156 0 -297 125q-51 41 -110 100q-141 143 -295 356h-101v-510q0 -23 27 -55h-217zM190 625l84 2 q96 0 185 75q94 86 94 206v10q-4 98 -78 184q-84 94 -207 94h-78v-571z" />
<glyph unicode="S" horiz-adv-x="770" d="M0 227q45 -86 128 -138t173 -52q94 0 157.5 59.5t63.5 153.5q0 119 -149 270q-106 104 -213 209q-117 133 -117 260t92 208t217 81q29 0 76 -8q57 -8 76 -8q16 -2 39 -2t53 2v-164q-55 123 -213 123q-215 0 -215 -193q0 -82 53 -151q31 -39 117 -113q39 -33 119 -102 q207 -190 207 -392q0 -141 -86.5 -217t-225.5 -76q-82 0 -164 21q-37 14 -110 37q-25 2 -74 10z" />
<glyph unicode="T" horiz-adv-x="1265" d="M0 1155v102h1159v-102q-27 47 -51 47h-449v-1147q0 -23 29 -55h-217q29 33 29 55v1147h-449q-43 0 -51 -47z" />
<glyph unicode="U" horiz-adv-x="1245" d="M0 1257h217q-29 -33 -29 -55v-788q0 -111 117 -224q100 -96 174 -108q49 -10 101 -10q143 0 270 73q100 57 100 84v973q0 23 -26 55h215q-27 -32 -27 -55v-1147q0 -23 27 -55h-215q27 33 26 55v103q-152 -180 -420 -181q-186 0 -337 123q-164 131 -164 314v788 q0 23 -29 55z" />
<glyph unicode="V" horiz-adv-x="1380" d="M0 1257h219q-10 -20 -10 -40q0 -10 2 -17l483 -973l516 975q6 10 7 19q0 25 -27 36h141q-47 -20 -67 -61l-633 -1206l-582 1210q-14 29 -49 57z" />
<glyph unicode="W" horiz-adv-x="1873" d="M0 1257h219q-16 -33 -8 -57l483 -973l191 361l-293 612q-10 25 -49 57h219q-16 -33 -8 -57l221 -444l235 446q6 10 7 21q0 23 -27 34h141q-23 -10 -67 -61l-260 -498l233 -471l516 975q6 10 6 19q0 25 -28 36h143q-23 -10 -68 -61l-632 -1206l-261 538l-282 -538 l-582 1210q-8 25 -49 57z" />
<glyph unicode="X" horiz-adv-x="1095" d="M0 0q16 6 31 14q37 20 53 47l375 574l-307 567q-12 23 -60 55h217q-10 -32 2 -55l236 -432l280 432q10 14 11 29q0 16 -19 26h144q-16 -6 -33 -14q-35 -20 -51 -47l-308 -473l361 -668q12 -23 59 -55h-217q10 33 -2 55l-289 533l-346 -533q-12 -14 -12 -28q0 -16 18 -27 h-143z" />
<glyph unicode="Y" horiz-adv-x="1114" d="M0 1257h229q-8 -33 7 -55l321 -528l317 526q10 14 11 27q0 20 -19 30h144q-16 -6 -31 -14q-35 -20 -53 -49l-340 -565v-574q0 -23 26 -55h-215q27 32 27 55v551l-363 596q-12 23 -61 55z" />
<glyph unicode="Z" horiz-adv-x="1191" d="M0 0l823 1200h-729q-43 0 -53 -45v102h979l-823 -1200h811q39 0 79 45l-28 -102h-1059z" />
<glyph unicode="[" horiz-adv-x="555" d="M0 -158h379v64h-244v1425h244v64h-379v-1553z" />
<glyph unicode="\" horiz-adv-x="509" d="M-41 1446l508 -1657h82l-512 1657h-78z" />
<glyph unicode="]" horiz-adv-x="579" d="M199 -90v-64h379v1553h-379v-64h241v-1425h-241z" />
<glyph unicode="^" horiz-adv-x="745" d="M0 932h53l266 192l271 -192h49l-322 319z" />
<glyph unicode="_" horiz-adv-x="1751" d="M0 911q0 201 109 445h120v117q31 -4 76 -5q164 0 357 74q84 31 163 31q80 0 160 -31q188 -74 354 -74q45 0 76 7v-117h121q109 -244 109 -445q0 -236 -168 -325q-47 -25 -47 -66q0 -61 102 -141q-156 -51 -283 -102q-305 -125 -424 -234l-4 -4l-2 4q-166 170 -702 334 q96 82 96 143q0 41 -45 64q-168 90 -168 325zM68 911q0 -195 131 -264q90 -49 90 -123q0 -61 -53 -114q90 -33 172 -66q268 -109 413 -215q137 102 416 217q82 33 172 66q-53 53 -53 114q0 74 90 123q131 70 131 264q0 166 -86 377h-143v111q-63 0 -136 10q-123 18 -251 68 q-70 27 -136 26q-68 0 -141 -26q-174 -68 -334 -78h-51v-113h-145q-86 -211 -86 -377zM88 911q0 156 80 357h149l2 112q176 2 373 78q70 27 133 27q61 0 127 -25q197 -76 375 -80v-110h150q79 -201 79 -357q0 -182 -120 -247q-100 -53 -101 -138q0 -55 39 -108 q-76 -27 -145 -55q-268 -109 -408 -211q-147 104 -405 208q-70 29 -146 56q39 53 39 108q0 84 -100 140q-121 63 -121 245zM422 698h147q-37 20 -37 37v166h99v-315q0 -29 -58 -62h498l103 144q-72 -53 -144 -54h-266v287h102v-166q0 -16 -35 -37h150q-37 20 -37 37v166h80 q41 0 63 -24v112q-31 -27 -63 -26h-80v147h219q39 0 82 -23l-39 84h-372q33 -20 32 -38v-172h-102v274q0 27 61 61h-250q55 -35 56 -63v-272h-99v174q0 16 37 36h-145q33 -20 33 -38v-398q0 -16 -35 -37zM776 346q25 -33 35 -90q4 -16 8 -45q2 -2 2 0q6 35 15.5 72.5 t27.5 62.5q2 4 -2 6q-20 8 -28 0q2 25 -5 41q-4 10 -8 15q-2 2 -4 0q-2 -4 -6 -15q-6 -16 -4 -41q-8 8 -29 0q-4 -2 -2 -6z" />
<glyph unicode="`" horiz-adv-x="380" d="M0 1468l80 80l182 -223l-39 -45z" />
<glyph unicode="a" horiz-adv-x="1103" d="M0 0q14 6 25 12q29 18 38 43l381 869l-36 80l81 133l482 -1088q8 -20 47 -49h-193q12 29 4 49l-159 359h-404l-155 -357q-4 -10 -5 -20q0 -20 19 -31h-125zM287 457h362l-182 413z" />
<glyph unicode="b" horiz-adv-x="755" d="M0 0q25 29 25 49v1010q0 20 -25 49h291q123 0 196 -64q86 -72 88 -206q0 -168 -186 -242q82 -12 139 -45q139 -76 142 -238v-7q0 -126 -70 -206q-90 -100 -281 -100h-319zM164 49h168q82 0 149.5 70.5t67.5 171.5v6q-1 100 -65 176q-66 78 -158 78h-162v-502zM164 608h84 q72 0 139 58q53 47 53 184q0 123 -75 180q-37 27 -107 27h-94v-449z" />
<glyph unicode="c" horiz-adv-x="1116" d="M0 553v17q0 228 161 390q167 168 433 168q193 0 315 -43l78 -14v-106q-110 114 -319 114h-4q-221 0 -379 -153.5t-158 -366.5q0 -211 156.5 -361.5t380.5 -150.5q242 0 366 105l-31 -117q-215 -53 -395 -53q-250 0 -424 166.5t-180 404.5z" />
<glyph unicode="d" horiz-adv-x="1177" d="M0 0q25 29 25 49v1010q0 20 -25 49h498q240 0 412.5 -155.5t179.5 -387.5v-15q0 -223 -170 -384q-176 -166 -414 -166h-506zM166 49h332q154 0 297 129q166 152 168 379v11q0 212 -156 358q-141 133 -311 133h-328z" />
<glyph unicode="e" horiz-adv-x="628" d="M0 0q25 29 25 49v1010q0 20 -25 49h512v-88q-16 39 -47 39h-299v-498h299q33 0 47 41l-2 -131q-20 41 -43 41h-301v-463h307q35 0 70 41l-25 -90h-518z" />
<glyph unicode="f" horiz-adv-x="598" d="M0 0q25 29 25 49v1010q0 23 -25 49h512v-88q-8 39 -47 39h-299v-498h299q35 0 47 41v-131q-8 41 -45 41h-301v-463q0 -23 24 -49h-190z" />
<glyph unicode="g" horiz-adv-x="1110" d="M0 547v17q0 229 158 390q172 174 436 174q193 0 315 -43l78 -12v-108q-61 66 -149 88q-61 18 -174 20h-12q-236 0 -384 -151q-141 -147 -141 -369q0 -213 156.5 -362.5t380.5 -149.5q111 0 192 27v421q0 20 -25 50h191q-25 -30 -25 -50v-440q-254 -69 -387 -69h-4 q-250 0 -425 164.5t-181 402.5z" />
<glyph unicode="h" horiz-adv-x="1138" d="M0 0q25 29 25 49v1010q0 20 -25 49h190q-25 -29 -24 -49v-424h721v424q0 20 -25 49h191q-25 -29 -25 -49v-1010q0 -20 25 -49h-191q25 29 25 49v537h-721v-537q0 -20 24 -49h-190z" />
<glyph unicode="i" horiz-adv-x="276" d="M0 0q25 29 25 49v1010q0 20 -25 49h190q-24 -29 -24 -49v-1010q0 -20 24 -49h-190z" />
<glyph unicode="j" horiz-adv-x="493" d="M0 156h86q-18 -12 -12 -35q18 -76 82 -82q7 -1 13 -1q73 0 73 83v938q0 20 -25 49h191q-25 -29 -25 -49v-905q0 -72 -49 -122t-125 -50q-145 0 -184 139q-4 14 -25 35z" />
<glyph unicode="k" horiz-adv-x="985" d="M0 0q25 29 25 49v1010q0 20 -25 49h190q-25 -29 -24 -49v-479l452 467q11 11 11 33q0 13 -4 30l157 -2q-25 -14 -71 -49l-432 -445l548 -565q18 -20 72 -49h-264q14 31 -4 51l-465 481v-483q0 -20 24 -49h-190z" />
<glyph unicode="l" horiz-adv-x="663" d="M0 0q25 29 25 49v1010q0 23 -25 49h190q-25 -27 -24 -49v-1010h342q37 0 70 41l-25 -90h-553z" />
<glyph unicode="m" horiz-adv-x="1388" d="M0 0q10 6 18 12q20 18 23 41l98 975v6q0 45 -57 74h178q-12 -29 -2 -49l383 -854l383 858q0 20 -33 45h197q-20 -29 -19 -49l103 -1010q2 -20 31 -49h-197q25 27 22 47l-88 916l-442 -983l-420 940l-88 -871v-6q0 -29 37 -43h-127z" />
<glyph unicode="n" horiz-adv-x="1196" d="M0 1108h223q-6 -14 -6 -31q0 -10 4 -18l799 -828v830q0 35 -37 47h127q-41 -14 -41 -53v-1073l-965 999v-932q0 -35 37 -49h-125q41 16 41 53v975q-18 51 -57 80z" />
<glyph unicode="o" horiz-adv-x="1294" d="M0 555q0 238 178 405.5t428 167.5t426 -167.5t176 -405.5t-176 -405.5t-426 -167.5t-428 167.5t-178 405.5zM131 557q-1 -217 139 -373q138 -155 329 -155h5q190 2 330.5 153.5t140.5 362.5q0 240 -114 381q-125 150 -357 155h-11q-208 0 -335 -151q-127 -147 -127 -373z " />
<glyph unicode="p" horiz-adv-x="763" d="M0 0q25 29 25 49v1010q0 20 -25 49h358q106 0 193 -61q115 -82 125 -236q1 -14 1 -28q0 -121 -80 -213q-89 -103 -218 -103q-51 0 -103 18q76 14 130 50q129 84 135 249v12q0 125 -78 201q-70 68 -158 68h-139v-1016q0 -20 24 -49h-190z" />
<glyph unicode="q" horiz-adv-x="1337" d="M0 555q0 238 178 405.5t428 167.5t426 -167.5t176 -405.5q0 -266 -211 -438q166 -162 254 -164q-49 -27 -114 -27q-133 0 -256 117q-129 -63 -275 -63q-250 0 -428 168.5t-178 406.5zM131 557q0 -217 139 -373q138 -155 329 -155h5q190 2 331.5 153.5t141.5 362.5 q0 240 -116 381q-125 150 -357 155h-11q-207 0 -335 -151q-127 -147 -127 -373z" />
<glyph unicode="r" horiz-adv-x="1060" d="M0 0q25 29 25 49v1010q0 20 -25 49h246q154 0 264 -78q117 -85 117 -213q0 -71 -41 -141q-55 -98 -172 -144q84 -154 311 -372q156 -154 250 -158q-43 -16 -98 -16q-139 0 -263 110q-45 35 -98 88q-123 127 -258 316h-90v-451q0 -20 22 -49h-190zM168 551h74q86 0 161 70 q84 72 84 178v10q-2 88 -69 162q-74 84 -182 84h-68v-504z" />
<glyph unicode="s" horiz-adv-x="671" d="M0 188q16 -29 39 -53q52 -59 115 -86q55 -22 106 -22h4q82 0 138.5 49t62.5 125q1 7 1 14q0 100 -106 213q-106 104 -213 209q-108 120 -108 236v14q4 84 63 151q53 59 129 78q37 10 80 10q35 0 83 -7t50 -7q14 -1 35 -1t47 1v-129q-18 37 -61 64q-53 34 -123 34h-4 q-182 -2 -193 -155q-1 -9 0 -19q0 -85 66 -155q96 -86 190 -170q184 -166 185 -344q0 -123 -76 -189.5t-199 -66.5q-70 0 -145 16q-35 14 -98 33q-23 2 -64 8z" />
<glyph unicode="t" horiz-adv-x="1110" d="M0 1020v88h1022v-88q-25 39 -45 39h-395v-1010q0 -20 24 -49h-190q25 29 24 49v1010h-395q-37 0 -45 -39z" />
<glyph unicode="u" horiz-adv-x="1091" d="M0 1108h190q-25 -29 -24 -49v-694q0 -96 104 -197q88 -84 154 -96q43 -8 86 -9q127 0 240 64q90 51 90 74v858q0 20 -25 49h191q-25 -29 -25 -49v-1010q0 -20 25 -49h-191q25 29 25 49v90q-134 -157 -368 -157h-3q-166 0 -301 106q-143 115 -143 277v694q0 20 -25 49z " />
<glyph unicode="v" horiz-adv-x="1181" d="M0 1110h193q-10 -18 -11 -37q0 -8 4 -12l424 -860q463 868 463 876q0 23 -24 33h125q-10 0 -32 -21.5t-28 -31.5l-559 -1065l-512 1069q-12 23 -43 49z" />
<glyph unicode="w" horiz-adv-x="1714" d="M-2 1110h195q-10 -18 -11 -37q0 -8 2 -12l426 -860l168 317l-258 543q-12 23 -43 49h193q-10 -18 -11 -37q0 -8 199 -407q213 403 213 411q0 23 -22 33h125q-41 -18 -60 -53l-231 -443l204 -413q461 866 461 874q0 20 -24 31h125q-41 -16 -60 -53l-557 -1061l-227 473 l-250 -473l-514 1069q-12 23 -43 49z" />
<glyph unicode="x" horiz-adv-x="960" d="M0 0q25 8 74 55l329 504l-270 500q-10 20 -51 49h190q-8 -29 2 -49l207 -381l248 383q10 12 10 24q0 16 -16 23h125q-25 -6 -74 -53l-270 -416l319 -590q10 -20 51 -49h-190q8 29 -4 49l-254 471l-305 -471q-10 -14 -10 -24q0 -16 14 -25h-125z" />
<glyph unicode="y" horiz-adv-x="976" d="M0 1108h203q-8 -29 4 -49l285 -465l280 465q8 12 8 24q0 16 -16 25h127q-25 -6 -74 -55l-301 -498v-506q0 -20 25 -49h-191q25 29 25 49v486l-320 524q-12 20 -55 49z" />
<glyph unicode="z" horiz-adv-x="1044" d="M0 0l727 1059h-645q-37 0 -45 -39v88h864l-727 -1059h715q35 0 69 41l-24 -90h-934z" />
<glyph unicode="{" horiz-adv-x="608" d="M0 649q98 -6 143 -37q55 -39 56 -133q-6 -365 -6 -397q0 -211 112 -266q70 -35 303 -35v45q-127 0 -182 33q-76 45 -86 178q0 10 -2 104v181q0 164 -12 210q-31 109 -150 130v6q117 25 148 123q14 45 14 198v127q0 139 10 184q25 98 115 127q49 16 145 19v45 q-72 0 -145 -2q-94 -2 -137 -21q-88 -37 -117 -153q-14 -63 -14 -205q0 -41 2 -127t2 -129q0 -96 -54 -135q-43 -33 -145 -37v-33z" />
<glyph unicode="|" horiz-adv-x="198" d="M72 -133h71v1522h-71v-1522z" />
<glyph unicode="}" horiz-adv-x="604" d="M0 -174q125 0 180 33q76 45 86 178q2 10 2 104v181q0 164 15 210q31 109 147 130v6q-117 25 -147 123q-14 45 -15 198v127q0 139 -10 184q-25 98 -115 127q-49 16 -143 19v45q72 0 143 -2q94 -2 140 -21q88 -37 114 -153q16 -63 17 -205q0 -41 -2 -127t-2 -129 q0 -96 51 -135q43 -33 145 -37v-33q-98 -6 -141 -37q-57 -39 -55 -133q6 -365 6 -397q0 -211 -115 -266q-68 -35 -301 -35v45z" />
<glyph unicode="~" horiz-adv-x="538" d="M8 1421q66 98 144 99q39 0 110.5 -25t110.5 -25q45 0 131 37q-14 -29 -70 -82q-59 -35 -110 -34q-33 0 -99.5 25.5t-115.5 25.5q-45 0 -101 -21z" />
<glyph unicode="&#xa1;" horiz-adv-x="280" d="M0 1165l82 92l82 -92l-82 -92zM31 0l143 76l-53 917h-76z" />
<glyph unicode="&#xa2;" horiz-adv-x="880" d="M27 770q-4 162 114.5 287t296.5 123h19l6 63h47l-6 -65q90 -8 145 -29l60 -2v-88q-78 80 -207 82l-62 -686q20 -2 45 -2q137 0 228 73l-2 -82q-150 -36 -267 -36h-8l-10 -86h-47l10 90q-152 20 -255 118.5t-107 239.5zM135 809q-4 -119 71 -212t191 -122l62 676 q-135 -10 -226.5 -110.5t-97.5 -231.5z" />
<glyph unicode="&#xa3;" horiz-adv-x="1081" d="M-63 582v55h139q-39 137 -39 250q0 174 92 278q63 72 150 95q43 10 92 10q39 0 90 -8q59 -8 61 -9q33 -2 92 0v-147q-18 41 -69 72q-61 37 -144 41q-205 5 -219 -177q-4 -53 -4 -104q0 -182 45 -301h287q37 0 51 45v-147q-27 47 -51 47h-272q43 -123 43 -267 q0 -139 -35 -260h401q39 0 80 47l-29 -102h-641q74 150 74 317q0 121 -39 265h-155z" />
<glyph unicode="&#xa4;" horiz-adv-x="1273" d="M-193 512v82h195q-2 16 -2 33v49h-193v82h203q39 225 220.5 373.5t441.5 148.5q219 0 358 -49l88 -14l2 -123q-127 129 -368 129q-217 0 -383 -132.5t-211 -332.5h497v-82h-510q-2 -20 -2 -41q0 -20 2 -41h510v-82h-497q45 -199 211 -329t383 -130q274 0 415 119 l-34 -131q-242 -61 -449 -61q-250 0 -436.5 151.5t-235.5 380.5h-205z" />
<glyph unicode="&#xa5;" horiz-adv-x="1114" d="M0 1257h229q-8 -33 7 -55l321 -528l317 526q10 14 11 27q0 20 -19 30h144q-16 -6 -31 -14q-35 -20 -53 -49l-340 -565v-142h166v-55h-166v-86h166v-57h-166v-234q0 -23 26 -55h-215q27 33 27 55v234h-156v57h156v86h-156v55h156v119l-363 596q-12 23 -61 55z" />
<glyph unicode="&#xa6;" horiz-adv-x="1404" />
<glyph unicode="&#xa7;" horiz-adv-x="1404" />
<glyph unicode="&#xa8;" horiz-adv-x="557" d="M27 1489q0 33 22.5 55.5t52.5 22.5q33 0 55.5 -22.5t22.5 -55.5q0 -31 -22.5 -53.5t-55.5 -22.5q-31 0 -53 22.5t-22 53.5zM324 1489q0 33 22.5 55.5t52.5 22.5q33 0 55.5 -22.5t22.5 -55.5q0 -31 -22.5 -53.5t-55.5 -22.5q-31 0 -53 22.5t-22 53.5z" />
<glyph unicode="&#xa9;" horiz-adv-x="1431" d="M6 629q0 266 200 454.5t480 188.5q283 0 482.5 -188.5t199.5 -454.5t-199.5 -454.5t-482.5 -188.5q-281 0 -480.5 188t-199.5 455zM63 629q0 -242 182.5 -413t440.5 -171t440.5 171t182.5 413t-182.5 412.5t-440.5 170.5t-440.5 -171t-182.5 -412zM168 621 q-6 205 137.5 348t368.5 143q166 0 268 -37l68 -12v-90q-94 96 -277 96q-188 0 -322.5 -130t-134.5 -312t134.5 -310.5t322.5 -128.5q207 0 314 91l-27 -101q-182 -45 -338 -45q-211 0 -360.5 142.5t-153.5 345.5z" />
<glyph unicode="&#xaa;" horiz-adv-x="1404" />
<glyph unicode="&#xab;" horiz-adv-x="702" d="M0 573l319 320v-88l-229 -230l229 -231v-90zM276 573l320 320v-88l-229 -230l229 -231v-90z" />
<glyph unicode="&#xac;" horiz-adv-x="1404" />
<glyph unicode="&#xad;" horiz-adv-x="630" d="M0 471h539v92h-539v-92z" />
<glyph unicode="&#xae;" horiz-adv-x="759" d="M0 942q0 135 96.5 230.5t231.5 95.5t230 -95.5t95 -230.5t-95 -231.5t-230 -96.5t-231.5 96.5t-96.5 231.5zM33 942q0 -123 88 -211t207 -84q112 4 198 80q-49 2 -92 41q-27 20 -139 158h-35v-176q0 -6 8 -19h-73q10 12 10 19v395q0 8 -10 18h96q59 0 104 -31.5t43 -82.5 q0 -78 -82 -109q33 -61 121 -147q35 -33 68 -50q76 82 76 199q0 121 -86 208t-207 87q-123 0 -209 -86t-86 -209zM254 946h29q33 0 64.5 29t31.5 72q-2 35 -27 63q-31 33 -71 33h-27v-197z" />
<glyph unicode="&#xb0;" horiz-adv-x="315" d="M0 1014q0 59 43 101t102 42t102.5 -42t43.5 -101q0 -61 -43.5 -103.5t-102.5 -42.5t-102 42t-43 104zM51 1014q0 -41 27.5 -68.5t66.5 -27.5t67 27.5t28 68.5q0 39 -28 66.5t-67 27.5t-66.5 -27.5t-27.5 -66.5z" />
<glyph unicode="&#xb4;" horiz-adv-x="335" d="M78 1337l96 267h143l-182 -267h-57z" />
<glyph unicode="&#xb8;" horiz-adv-x="440" d="M0 -236q76 -76 158 -73q127 4 121 98q-2 51 -56 76q-29 14 -82 12q-16 -4 -49 -10v121h45v-66q70 8 125 -22q74 -37 74 -109q-2 -129 -170 -135q-92 -4 -164 55z" />
<glyph unicode="&#xba;" horiz-adv-x="227" d="M0 1440q0 51 36 87t87 36q49 0 85 -36t36 -87t-36 -87t-85 -36q-51 0 -87 36t-36 87zM49 1440q0 -31 21.5 -51.5t52.5 -20.5q29 0 50.5 20.5t21.5 51.5t-21.5 52t-50.5 21q-31 0 -52.5 -21.5t-21.5 -51.5z" />
<glyph unicode="&#xbb;" horiz-adv-x="702" d="M-2 287v88l229 229l-229 232v90l319 -320zM274 287v88l230 229l-230 232v90l320 -320z" />
<glyph unicode="&#xbf;" horiz-adv-x="817" d="M0 346q0 119 115 234q96 98 207 135v301h57v-314q-121 -84 -160 -133q-72 -87 -80 -239q-6 -98 58 -187q68 -94 165 -92q92 0 156 62.5t64 158.5q0 23 -4 47q-2 12 -25 27l158 72q-4 -8 -2 -31q12 -172 -93.5 -279.5t-259.5 -107.5q-147 0 -251.5 101.5t-104.5 244.5z M270 1188l84 90l80 -90l-80 -92z" />
<glyph unicode="&#xc0;" d="M0 0q16 6 29 14q33 20 43 47l432 986l-41 92l92 149l545 -1233q10 -23 53 -55h-217q14 33 4 55l-180 408h-457l-178 -406q-6 -12 -6 -22q0 -23 24 -35h-143zM326 518h411l-207 469zM358 1604l183 -267h57l-96 267h-144z" />
<glyph unicode="&#xc1;" d="M0 0q16 6 29 14q33 20 43 47l432 986l-41 92l92 149l545 -1233q10 -23 53 -55h-217q14 33 4 55l-180 408h-457l-178 -406q-6 -12 -6 -22q0 -23 24 -35h-143zM326 518h411l-207 469zM539 1337l96 267h143l-182 -267h-57z" />
<glyph unicode="&#xc2;" d="M0 0q16 6 29 14q33 20 43 47l432 986l-41 92l92 149l545 -1233q10 -23 53 -55h-217q14 33 4 55l-180 408h-457l-178 -406q-6 -12 -6 -22q0 -23 24 -35h-143zM319 1331h43l216 156l219 -156h39l-261 260zM326 518h411l-207 469z" />
<glyph unicode="&#xc3;" d="M0 0q16 6 29 14q33 20 43 47l432 986l-41 92l92 149l545 -1233q10 -23 53 -55h-217q14 33 4 55l-180 408h-457l-178 -406q-6 -12 -6 -22q0 -23 24 -35h-143zM319 1421q68 98 146 99q37 0 109.5 -25t109.5 -25q45 0 131 37q-12 -29 -70 -82q-59 -35 -108 -34 q-35 0 -100.5 25.5t-116.5 25.5q-43 0 -101 -21zM326 518h411l-207 469z" />
<glyph unicode="&#xc4;" d="M0 0q16 6 29 14q33 20 43 47l432 986l-41 92l92 149l545 -1233q10 -23 53 -55h-217q14 33 4 55l-180 408h-457l-178 -406q-6 -12 -6 -22q0 -23 24 -35h-143zM326 518h411l-207 469zM328 1489q0 33 22.5 55.5t55.5 22.5q31 0 53 -22.5t22 -55.5q0 -31 -22.5 -53.5 t-52.5 -22.5q-33 0 -55.5 22.5t-22.5 53.5zM625 1489q0 33 22.5 55.5t54.5 22.5q31 0 53.5 -22.5t22.5 -55.5q0 -31 -22.5 -53.5t-53.5 -22.5q-33 0 -55 22.5t-22 53.5z" />
<glyph unicode="&#xc5;" d="M0 0q16 6 29 14q33 20 43 47l432 986l-41 92l92 149l545 -1233q10 -23 53 -55h-217q14 33 4 55l-180 408h-457l-178 -406q-6 -12 -6 -22q0 -23 24 -35h-143zM326 518h411l-207 469zM432 1481q0 51 36 87t87 36t87 -36t36 -87t-36 -87t-87 -36t-87 36t-36 87zM481 1481 q0 -31 21.5 -51.5t52.5 -20.5t52.5 20.5t21.5 51.5t-21.5 52t-52.5 21t-52.5 -21.5t-21.5 -51.5z" />
<glyph unicode="&#xc6;" horiz-adv-x="1566" d="M0 0q16 6 29 14q33 20 43 47l432 986l-41 92l92 149l369 -831v743q0 23 -27 57l580 -2v-100q-29 45 -54 45h-340l2 -563h338q37 0 54 45v-147q-29 45 -54 45h-338v-525h349q39 0 77 47l-26 -102h-549q14 33 4 55l-180 408h-457l-178 -406q-6 -12 -6 -22q0 -23 24 -35 h-143zM326 518h411l-207 469z" />
<glyph unicode="&#xc7;" horiz-adv-x="1138" d="M0 627q-6 272 180 458q193 195 492 195q219 0 358 -49l88 -14l2 -123q-127 129 -368 129q-252 0 -430.5 -173t-178.5 -415t178.5 -412t430.5 -170q274 0 415 119l-34 -131q-215 -55 -416 -61v-58q70 8 127 -22q72 -37 71 -109q-2 -129 -170 -135q-92 -4 -163 55l-2 53 q76 -76 157 -73q127 4 123 98q-4 51 -57 76q-29 14 -82 12q-14 -4 -49 -10v113q-279 4 -472.5 192t-199.5 455z" />
<glyph unicode="&#xc8;" horiz-adv-x="671" d="M0 0q29 33 29 55v1145q0 23 -29 57h580v-102q-27 45 -52 45h-340v-563h340q37 0 52 45v-147q-27 45 -52 45h-340v-525h349q39 0 79 47l-28 -102h-588zM133 1604l182 -267h58l-97 267h-143z" />
<glyph unicode="&#xc9;" horiz-adv-x="671" d="M0 0q29 33 29 55v1145q0 23 -29 57h580v-102q-27 45 -52 45h-340v-563h340q37 0 52 45v-147q-27 45 -52 45h-340v-525h349q39 0 79 47l-28 -102h-588zM252 1337l96 267h144l-183 -267h-57z" />
<glyph unicode="&#xca;" horiz-adv-x="671" d="M0 0q29 33 29 55v1145q0 23 -29 57h580v-102q-27 45 -52 45h-340v-563h340q37 0 52 45v-147q-27 45 -52 45h-340v-525h349q39 0 79 47l-28 -102h-588zM45 1331h43l215 156l219 -156h39l-260 260z" />
<glyph unicode="&#xcb;" horiz-adv-x="671" d="M0 0q29 33 29 55v1145q0 23 -29 57h580v-102q-27 45 -52 45h-340v-563h340q37 0 52 45v-147q-27 45 -52 45h-340v-525h349q39 0 79 47l-28 -102h-588zM82 1489q0 33 22.5 55.5t55.5 22.5q31 0 53.5 -22.5t22.5 -55.5q0 -31 -23 -53.5t-53 -22.5q-33 0 -55.5 22.5 t-22.5 53.5zM379 1489q0 33 22.5 55.5t55.5 22.5q31 0 53 -22.5t22 -55.5q0 -31 -22.5 -53.5t-52.5 -22.5q-33 0 -55.5 22.5t-22.5 53.5z" />
<glyph unicode="&#xcc;" horiz-adv-x="335" d="M-102 1604l182 -267h57l-96 267h-143zM0 0q29 33 29 55v1145q0 23 -29 57h217q-29 -34 -29 -57v-1145q0 -23 29 -55h-217z" />
<glyph unicode="&#xcd;" horiz-adv-x="335" d="M0 0q29 33 29 55v1145q0 23 -29 57h217q-29 -34 -29 -57v-1145q0 -23 29 -55h-217zM78 1337l96 267h143l-182 -267h-57z" />
<glyph unicode="&#xce;" horiz-adv-x="339" d="M-154 1331h43l215 156l220 -156h38l-260 260zM0 0q29 33 29 55v1145q0 23 -29 57h217q-29 -34 -29 -57v-1145q0 -23 29 -55h-217z" />
<glyph unicode="&#xcf;" horiz-adv-x="335" d="M-123 1489q0 33 22.5 55.5t55.5 22.5q31 0 53.5 -22.5t22.5 -55.5q0 -31 -22.5 -53.5t-53.5 -22.5q-33 0 -55.5 22.5t-22.5 53.5zM0 0q29 33 29 55v1145q0 23 -29 57h217q-29 -34 -29 -57v-1145q0 -23 29 -55h-217zM174 1489q0 33 22.5 55.5t55.5 22.5q31 0 53.5 -22.5 t22.5 -55.5q0 -31 -22.5 -53.5t-53.5 -22.5q-33 0 -55.5 22.5t-22.5 53.5z" />
<glyph unicode="&#xd0;" horiz-adv-x="1263" d="M-160 586v86h189v528q0 23 -29 55h563q272 0 469 -176t203 -440q8 -262 -190.5 -450.5t-473.5 -188.5h-571q29 33 29 55v531h-189zM188 55h377q174 0 334 148q188 170 193 430q4 246 -177 416q-162 152 -352 151h-375v-528h191v-86h-191v-531z" />
<glyph unicode="&#xd1;" horiz-adv-x="1341" d="M0 1257h254q-8 -16 -8 -34q0 -12 4 -23l907 -936v938q0 39 -43 55h143q-45 -18 -45 -61v-1219l-1093 1135v-1057q0 -39 41 -55h-142q47 18 48 61v1104q-23 57 -66 92zM371 1421q68 98 145 99q37 0 109.5 -25t109.5 -25q45 0 131 37q-12 -29 -69 -82q-59 -35 -109 -34 q-35 0 -100.5 25.5t-116.5 25.5q-43 0 -100 -21z" />
<glyph unicode="&#xd2;" horiz-adv-x="1454" d="M0 629q0 270 201.5 460.5t486.5 190.5q283 0 482.5 -190.5t199.5 -460.5q0 -268 -199.5 -460t-482.5 -192q-285 0 -486.5 191.5t-201.5 460.5zM150 631q0 -246 156.5 -423t377.5 -175q217 2 377 173.5t160 409.5q0 272 -134 433q-139 172 -403 176q-242 6 -393 -170 q-141 -168 -141 -424zM481 1604l183 -267h57l-96 267h-144z" />
<glyph unicode="&#xd3;" horiz-adv-x="1454" d="M0 629q0 270 201.5 460.5t486.5 190.5q283 0 482.5 -190.5t199.5 -460.5q0 -268 -199.5 -460t-482.5 -192q-285 0 -486.5 191.5t-201.5 460.5zM150 631q0 -246 156.5 -423t377.5 -175q217 2 377 173.5t160 409.5q0 272 -134 433q-139 172 -403 176q-242 6 -393 -170 q-141 -168 -141 -424zM641 1337l96 267h144l-183 -267h-57z" />
<glyph unicode="&#xd4;" horiz-adv-x="1454" d="M0 629q0 270 201.5 460.5t486.5 190.5q283 0 482.5 -190.5t199.5 -460.5q0 -268 -199.5 -460t-482.5 -192q-285 0 -486.5 191.5t-201.5 460.5zM150 631q0 -246 156.5 -423t377.5 -175q217 2 377 173.5t160 409.5q0 272 -134 433q-139 172 -403 176q-242 6 -393 -170 q-141 -168 -141 -424zM403 1331h43l218 156l217 -156h41l-260 260z" />
<glyph unicode="&#xd5;" horiz-adv-x="1454" d="M0 629q0 270 201.5 460.5t486.5 190.5q283 0 482.5 -190.5t199.5 -460.5q0 -268 -199.5 -460t-482.5 -192q-285 0 -486.5 191.5t-201.5 460.5zM150 631q0 -246 156.5 -423t377.5 -175q217 2 377 173.5t160 409.5q0 272 -134 433q-139 172 -403 176q-242 6 -393 -170 q-141 -168 -141 -424zM432 1421q68 98 146 99q37 0 109.5 -25t109.5 -25q45 0 131 37q-12 -29 -70 -82q-59 -35 -108 -34q-35 0 -100.5 25.5t-117.5 25.5q-43 0 -100 -21z" />
<glyph unicode="&#xd6;" horiz-adv-x="1454" d="M0 629q0 270 201.5 460.5t486.5 190.5q283 0 482.5 -190.5t199.5 -460.5q0 -268 -199.5 -460t-482.5 -192q-285 0 -486.5 191.5t-201.5 460.5zM150 631q0 -246 156.5 -423t377.5 -175q217 2 377 173.5t160 409.5q0 272 -134 433q-139 172 -403 176q-242 6 -393 -170 q-141 -168 -141 -424zM461 1489q0 33 22.5 55.5t55.5 22.5q31 0 53 -22.5t22 -55.5q0 -31 -22.5 -53.5t-52.5 -22.5q-33 0 -55.5 22.5t-22.5 53.5zM758 1489q0 33 22.5 55.5t55.5 22.5q31 0 53 -22.5t22 -55.5q0 -31 -22.5 -53.5t-52.5 -22.5q-33 0 -55.5 22.5t-22.5 53.5z " />
<glyph unicode="&#xd8;" horiz-adv-x="1474" d="M0 629q0 270 201.5 460.5t486.5 190.5q193 0 356 -96l125 145h103l-162 -188q260 -197 260 -512q0 -268 -199.5 -460t-482.5 -192q-250 0 -442 154l-119 -131h-104l163 184q-186 188 -186 445zM150 631q0 -201 110 -363l739 862q-127 90 -315 95q-242 6 -393 -170 q-141 -168 -141 -424zM309 205q156 -174 375 -172q217 2 377 174t160 409q0 303 -162 465z" />
<glyph unicode="&#xd9;" horiz-adv-x="1257" d="M0 1257h217q-29 -33 -29 -55v-788q0 -111 117 -224q100 -96 174 -108q49 -10 101 -10q143 0 270 73q100 57 100 84v973q0 23 -26 55h215q-27 -32 -27 -55v-1147q0 -23 27 -55h-215q27 33 26 55v103q-152 -180 -420 -181q-186 0 -337 123q-164 131 -164 314v788 q0 23 -29 55zM358 1604l183 -267h57l-96 267h-144z" />
<glyph unicode="&#xda;" horiz-adv-x="1257" d="M0 1257h217q-29 -33 -29 -55v-788q0 -111 117 -224q100 -96 174 -108q49 -10 101 -10q143 0 270 73q100 57 100 84v973q0 23 -26 55h215q-27 -32 -27 -55v-1147q0 -23 27 -55h-215q27 33 26 55v103q-152 -180 -420 -181q-186 0 -337 123q-164 131 -164 314v788 q0 23 -29 55zM528 1337l97 267h143l-182 -267h-58z" />
<glyph unicode="&#xdb;" horiz-adv-x="1257" d="M0 1257h217q-29 -33 -29 -55v-788q0 -111 117 -224q100 -96 174 -108q49 -10 101 -10q143 0 270 73q100 57 100 84v973q0 23 -26 55h215q-27 -32 -27 -55v-1147q0 -23 27 -55h-215q27 33 26 55v103q-152 -180 -420 -181q-186 0 -337 123q-164 131 -164 314v788 q0 23 -29 55zM319 1331h43l216 156l219 -156h39l-261 260z" />
<glyph unicode="&#xdc;" horiz-adv-x="1257" d="M0 1257h217q-29 -33 -29 -55v-788q0 -111 117 -224q100 -96 174 -108q49 -10 101 -10q143 0 270 73q100 57 100 84v973q0 23 -26 55h215q-27 -32 -27 -55v-1147q0 -23 27 -55h-215q27 33 26 55v103q-152 -180 -420 -181q-186 0 -337 123q-164 131 -164 314v788 q0 23 -29 55zM328 1489q0 33 22.5 55.5t55.5 22.5q31 0 53 -22.5t22 -55.5q0 -31 -22.5 -53.5t-52.5 -22.5q-33 0 -55.5 22.5t-22.5 53.5zM625 1489q0 33 22.5 55.5t54.5 22.5q31 0 53.5 -22.5t22.5 -55.5q0 -31 -22.5 -53.5t-53.5 -22.5q-33 0 -55 22.5t-22 53.5z" />
<glyph unicode="&#xdd;" horiz-adv-x="960" d="M0 1257h229q-8 -33 7 -55l321 -528l317 526q10 14 11 27q0 20 -19 30h144q-16 -6 -31 -14q-35 -20 -53 -49l-340 -565v-574q0 -23 26 -55h-215q27 32 27 55v551l-363 596q-12 23 -61 55zM498 1337l96 267h143l-182 -267h-57z" />
<glyph unicode="&#xde;" horiz-adv-x="874" d="M0 0q29 33 29 55v1385q0 23 -29 55h188l-2 -344h222q121 0 219 -72q127 -92 141 -266q10 -156 -91.5 -272.5t-246.5 -116.5q-59 0 -117 20q84 16 146 58q147 94 153 282q4 150 -88 242q-78 76 -178 76h-158q0 2 0 -1047q0 -23 29 -55h-217z" />
<glyph unicode="&#xdf;" horiz-adv-x="1449" d="M0 213q20 -33 43 -59q59 -68 133 -97q61 -27 123 -26q94 0 157.5 55t69.5 143q10 119 -116 256l-242 238q-129 143 -125 283q4 96 72 170q61 68 147 90q41 12 90 12q39 0 90 -8q59 -8 62 -8q33 -2 92 0v-148q-18 41 -70 74q-61 39 -143 37q-207 -2 -219 -174 q-6 -111 76 -199q109 -96 217 -193q207 -188 207 -391q0 -29 -5 -55q-45 -236 -307 -236q-78 0 -166 21q-39 14 -110 37q-25 2 -72 10zM707 213q20 -33 43 -59q59 -68 133 -97q61 -27 123 -26q94 0 157.5 55t69.5 143q10 119 -117 256l-242 238q-129 143 -124 283 q4 96 71 170q61 68 148 90q41 12 90 12q39 0 90 -8q59 -8 61 -8q33 -2 93 0v-148q-18 41 -70 74q-61 39 -143 37q-207 -2 -220 -174q-6 -111 76 -199q109 -96 217 -193q207 -188 207 -391q0 -29 -4 -55q-45 -236 -307 -236q-78 0 -166 21q-39 14 -111 37q-25 2 -71 10z" />
<glyph unicode="&#xe0;" horiz-adv-x="1091" d="M0 0q14 6 25 12q29 18 38 43l381 869l-36 80l81 133l482 -1088q8 -20 47 -49h-193q12 29 4 49l-159 359h-404l-155 -357q-4 -10 -5 -20q0 -20 19 -31h-125zM287 457h362l-182 413zM287 1501l182 -266h57l-96 266h-143z" />
<glyph unicode="&#xe1;" horiz-adv-x="1091" d="M0 0q14 6 25 12q29 18 38 43l381 869l-36 80l81 133l482 -1088q8 -20 47 -49h-193q12 29 4 49l-159 359h-404l-155 -357q-4 -10 -5 -20q0 -20 19 -31h-125zM287 457h362l-182 413zM467 1235l96 266h144l-183 -266h-57z" />
<glyph unicode="&#xe2;" horiz-adv-x="1093" d="M0 0q14 6 25 12q29 18 38 43l381 869l-36 80l81 133l482 -1088q8 -20 47 -49h-193q12 29 4 49l-159 359h-404l-155 -357q-4 -10 -5 -20q0 -20 19 -31h-125zM260 1200h39l195 139l196 -139h35l-233 234zM287 457h362l-182 413z" />
<glyph unicode="&#xe3;" horiz-adv-x="1091" d="M0 0q14 6 25 12q29 18 38 43l381 869l-36 80l81 133l482 -1088q8 -20 47 -49h-193q12 29 4 49l-159 359h-404l-155 -357q-4 -10 -5 -20q0 -20 19 -31h-125zM279 1268q68 98 145 98q37 0 109.5 -24.5t109.5 -24.5q45 0 131 37q-12 -29 -69 -82q-59 -35 -109 -35 q-35 0 -100.5 25.5t-116.5 25.5q-43 0 -100 -20zM287 457h362l-182 413z" />
<glyph unicode="&#xe4;" horiz-adv-x="1093" d="M0 0q14 6 25 12q29 18 38 43l381 869l-36 80l81 133l482 -1088q8 -20 47 -49h-193q12 29 4 49l-159 359h-404l-155 -357q-4 -10 -5 -20q0 -20 19 -31h-125zM276 1274q0 29 21.5 51.5t52.5 22.5t52.5 -22.5t21.5 -51.5q0 -31 -21.5 -52.5t-52.5 -21.5t-52.5 21.5 t-21.5 52.5zM287 457h362l-182 413zM561 1274q0 29 21.5 51.5t52.5 22.5t52.5 -22.5t21.5 -51.5q0 -31 -21.5 -52.5t-52.5 -21.5t-52.5 21.5t-21.5 52.5z" />
<glyph unicode="&#xe5;" horiz-adv-x="1091" d="M0 0q14 6 25 12q29 18 38 43l381 869l-36 80l81 133l482 -1088q8 -20 47 -49h-193q12 29 4 49l-159 359h-404l-155 -357q-4 -10 -5 -20q0 -20 19 -31h-125zM287 457h362l-182 413zM371 1348q0 51 36 86.5t87 35.5t86.5 -35.5t35.5 -86.5t-35.5 -87t-86.5 -36t-87 35.5 t-36 87.5zM420 1348q0 -31 21.5 -51.5t52.5 -20.5t52 20.5t21 51.5t-21 52t-52 21t-52.5 -21.5t-21.5 -51.5z" />
<glyph unicode="&#xe6;" horiz-adv-x="1394" d="M0 0q14 6 25 12q29 18 38 43l379 867l-34 79l81 132l324 -732v660q0 18 -25 49h510v-92q-25 41 -45 41h-299v-500h299q33 0 45 41v-129q-25 39 -45 39h-299v-461h308q35 0 69 41l-24 -90h-482q10 29 2 49l-157 359h-404l-155 -357q-6 -10 -7 -20q0 -20 21 -31h-125z M287 457h360l-180 411z" />
<glyph unicode="&#xe7;" horiz-adv-x="1011" d="M0 551q-6 240 161 407.5t431 167.5q193 0 315 -43l78 -14v-106q-111 115 -323 114q-221 0 -378 -152.5t-157 -365.5t156.5 -362.5t378.5 -149.5q242 0 366 105l-33 -117q-188 -47 -364 -53v-50q61 6 110 -20q66 -33 64 -94q0 -115 -150 -121q-80 -2 -143 49l-2 47 q68 -68 139 -65q113 4 107 88q-2 43 -49 65q-25 12 -72 10q-14 -2 -43 -8v99q-246 4 -416 169.5t-176 399.5z" />
<glyph unicode="&#xe8;" horiz-adv-x="610" d="M0 0q25 29 25 49v1010q0 20 -25 49h512v-88q-16 39 -47 39h-299v-498h299q33 0 47 41l-2 -131q-20 41 -43 41h-301v-463h307q35 0 70 41l-25 -90h-518zM61 1501l183 -266h57l-96 266h-144z" />
<glyph unicode="&#xe9;" horiz-adv-x="608" d="M0 0q25 29 25 49v1010q0 20 -25 49h512v-88q-16 39 -47 39h-299v-498h299q33 0 47 41l-2 -131q-20 41 -43 41h-301v-463h307q35 0 70 41l-25 -90h-518zM201 1235l96 266h143l-182 -266h-57z" />
<glyph unicode="&#xea;" horiz-adv-x="610" d="M0 0q25 29 25 49v1010q0 20 -25 49h512v-88q-16 39 -47 39h-299v-498h299q33 0 47 41l-2 -131q-20 41 -43 41h-301v-463h307q35 0 70 41l-25 -90h-518zM35 1200h39l194 139l197 -139h35l-234 234z" />
<glyph unicode="&#xeb;" horiz-adv-x="604" d="M0 0q25 29 25 49v1010q0 20 -25 49h512v-88q-16 39 -47 39h-299v-498h299q33 0 47 41l-2 -131q-20 41 -43 41h-301v-463h307q35 0 70 41l-25 -90h-518zM39 1274q0 29 21.5 51.5t52.5 22.5t52 -22.5t21 -51.5q0 -31 -21.5 -52.5t-51.5 -21.5q-31 0 -52.5 21.5t-21.5 52.5z M326 1274q0 29 21.5 51.5t51.5 22.5q31 0 52.5 -22.5t21.5 -51.5q0 -31 -21.5 -52.5t-52.5 -21.5t-52 21.5t-21 52.5z" />
<glyph unicode="&#xec;" horiz-adv-x="313" d="M-123 1501l182 -266h58l-97 266h-143zM0 0q25 29 25 49v1010q0 20 -25 49h190q-24 -29 -24 -49v-1010q0 -20 24 -49h-190z" />
<glyph unicode="&#xed;" horiz-adv-x="333" d="M0 0q25 29 25 49v1010q0 20 -25 49h190q-24 -29 -24 -49v-1010q0 -20 24 -49h-190zM57 1235l97 266h143l-182 -266h-58z" />
<glyph unicode="&#xee;" horiz-adv-x="313" d="M-133 1200h39l194 139l197 -139h37l-236 234zM0 0q25 29 25 49v1010q0 20 -25 49h190q-24 -29 -24 -49v-1010q0 -20 24 -49h-190z" />
<glyph unicode="&#xef;" horiz-adv-x="313" d="M-117 1274q0 29 21.5 51.5t52.5 22.5t52.5 -22.5t21.5 -51.5q0 -31 -21.5 -52.5t-52.5 -21.5t-52.5 21.5t-21.5 52.5zM0 0q25 29 25 49v1010q0 20 -25 49h190q-24 -29 -24 -49v-1010q0 -20 24 -49h-190zM168 1274q0 29 21.5 51.5t52.5 22.5t52 -22.5t21 -51.5 q0 -31 -21.5 -52.5t-51.5 -21.5q-31 0 -52.5 21.5t-21.5 52.5z" />
<glyph unicode="&#xf0;" horiz-adv-x="1128" d="M-141 518v74h166v467q0 20 -25 49h498q240 0 413.5 -155.5t178.5 -387.5q6 -233 -169.5 -399t-414.5 -166h-506q25 29 25 49v469h-166zM166 49h332q154 0 297 129q166 152 168 379q4 219 -156 369q-141 135 -311 135l-328 -2l-2 -467h168v-76h-168v-467z" />
<glyph unicode="&#xf1;" horiz-adv-x="1224" d="M0 1108h223q-6 -14 -6 -31q0 -10 4 -18l799 -828v830q0 35 -37 47h127q-41 -14 -41 -53v-1073l-965 999v-932q0 -35 37 -49h-125q41 16 41 53v975q-18 51 -57 80zM309 1268q68 98 146 98q37 0 109.5 -24.5t109.5 -24.5q45 0 131 37q-12 -29 -70 -82q-59 -35 -108 -35 q-35 0 -100.5 25.5t-116.5 25.5q-43 0 -101 -20z" />
<glyph unicode="&#xf2;" horiz-adv-x="1302" d="M0 555q0 238 178 405.5t428 167.5t426 -167.5t176 -405.5t-176 -405.5t-426 -167.5t-428 167.5t-178 405.5zM131 557q0 -217 139.5 -373.5t333.5 -154.5q190 2 330.5 153.5t140.5 362.5q0 240 -114 381q-125 150 -357 155q-215 4 -346 -151q-127 -147 -127 -373z M379 1501l182 -266h57l-96 266h-143z" />
<glyph unicode="&#xf3;" horiz-adv-x="1302" d="M0 555q0 238 178 405.5t428 167.5t426 -167.5t176 -405.5t-176 -405.5t-426 -167.5t-428 167.5t-178 405.5zM131 557q0 -217 139.5 -373.5t333.5 -154.5q190 2 330.5 153.5t140.5 362.5q0 240 -114 381q-125 150 -357 155q-215 4 -346 -151q-127 -147 -127 -373z M600 1235l96 266h144l-183 -266h-57z" />
<glyph unicode="&#xf4;" horiz-adv-x="1302" d="M0 555q0 238 178 405.5t428 167.5t426 -167.5t176 -405.5t-176 -405.5t-426 -167.5t-428 167.5t-178 405.5zM131 557q0 -217 139.5 -373.5t333.5 -154.5q190 2 330.5 153.5t140.5 362.5q0 240 -114 381q-125 150 -357 155q-215 4 -346 -151q-127 -147 -127 -373z M387 1200h39l195 139l196 -139h35l-234 234z" />
<glyph unicode="&#xf5;" horiz-adv-x="1302" d="M0 555q0 238 178 405.5t428 167.5t426 -167.5t176 -405.5t-176 -405.5t-426 -167.5t-428 167.5t-178 405.5zM131 557q0 -217 139.5 -373.5t333.5 -154.5q190 2 330.5 153.5t140.5 362.5q0 240 -114 381q-125 150 -357 155q-215 4 -346 -151q-127 -147 -127 -373z M340 1268q68 98 145 98q37 0 110 -24.5t110 -24.5q45 0 131 37q-12 -29 -70 -82q-59 -35 -109 -35q-35 0 -100 25.5t-117 25.5q-43 0 -100 -20z" />
<glyph unicode="&#xf6;" horiz-adv-x="1302" d="M0 555q0 238 178 405.5t428 167.5t426 -167.5t176 -405.5t-176 -405.5t-426 -167.5t-428 167.5t-178 405.5zM131 557q0 -217 139.5 -373.5t333.5 -154.5q190 2 330.5 153.5t140.5 362.5q0 240 -114 381q-125 150 -357 155q-215 4 -346 -151q-127 -147 -127 -373z M387 1274q0 29 21.5 51.5t52.5 22.5t52.5 -22.5t21.5 -51.5q0 -31 -21.5 -52.5t-52.5 -21.5t-52.5 21.5t-21.5 52.5zM674 1274q0 29 21.5 51.5t52.5 22.5t52 -22.5t21 -51.5q0 -31 -21.5 -52.5t-51.5 -21.5q-31 0 -52.5 21.5t-21.5 52.5z" />
<glyph unicode="&#xf8;" horiz-adv-x="1474" d="M0 553q0 238 178 405.5t426 167.5q172 0 316 -84l108 127h92l-143 -165q229 -172 229 -451q0 -236 -176 -403.5t-426 -167.5q-219 0 -389 135l-102 -117h-93l144 162q-164 166 -164 391zM131 555q0 -176 96 -319l654 759q-113 80 -279 84q-213 4 -346 -151 q-125 -147 -125 -373zM270 180q139 -154 332 -151q190 2 330.5 153.5t140.5 360.5q0 266 -141 407z" />
<glyph unicode="&#xf9;" horiz-adv-x="1124" d="M0 1108h190q-25 -29 -24 -49v-694q0 -96 104 -197q88 -84 154 -96q43 -8 86 -9q127 0 240 64q90 51 90 74v858q0 20 -25 49h191q-25 -29 -25 -49v-1010q0 -20 25 -49h-191q25 29 25 49v90q-135 -158 -371 -157q-166 0 -301 106q-143 115 -143 277v694q0 20 -25 49z M307 1501l182 -266h58l-96 266h-144z" />
<glyph unicode="&#xfa;" horiz-adv-x="1124" d="M0 1108h190q-25 -29 -24 -49v-694q0 -96 104 -197q88 -84 154 -96q43 -8 86 -9q127 0 240 64q90 51 90 74v858q0 20 -25 49h191q-25 -29 -25 -49v-1010q0 -20 25 -49h-191q25 29 25 49v90q-135 -158 -371 -157q-166 0 -301 106q-143 115 -143 277v694q0 20 -25 49z M467 1235l96 266h144l-183 -266h-57z" />
<glyph unicode="&#xfb;" horiz-adv-x="1124" d="M0 1108h190q-25 -29 -24 -49v-694q0 -96 104 -197q88 -84 154 -96q43 -8 86 -9q127 0 240 64q90 51 90 74v858q0 20 -25 49h191q-25 -29 -25 -49v-1010q0 -20 25 -49h-191q25 29 25 49v90q-135 -158 -371 -157q-166 0 -301 106q-143 115 -143 277v694q0 20 -25 49z M268 1200h39l195 139l196 -139h35l-233 234z" />
<glyph unicode="&#xfc;" horiz-adv-x="1124" d="M0 1108h190q-25 -29 -24 -49v-694q0 -96 104 -197q88 -84 154 -96q43 -8 86 -9q127 0 240 64q90 51 90 74v858q0 20 -25 49h191q-25 -29 -25 -49v-1010q0 -20 25 -49h-191q25 29 25 49v90q-135 -158 -371 -157q-166 0 -301 106q-143 115 -143 277v694q0 20 -25 49z M285 1274q0 29 21.5 51.5t51.5 22.5q31 0 52.5 -22.5t21.5 -51.5q0 -31 -21.5 -52.5t-52.5 -21.5t-52 21.5t-21 52.5zM571 1274q0 29 21.5 51.5t52.5 22.5t52.5 -22.5t21.5 -51.5q0 -31 -21.5 -52.5t-52.5 -21.5t-52.5 21.5t-21.5 52.5z" />
<glyph unicode="&#xfd;" horiz-adv-x="958" d="M0 1108h203q-8 -29 4 -49l285 -465l280 465q8 12 8 24q0 16 -16 25h127q-25 -6 -74 -55l-301 -498v-506q0 -20 25 -49h-191q25 29 25 49v486l-320 524q-12 20 -55 49zM467 1235l96 266h144l-183 -266h-57z" />
<glyph unicode="&#xfe;" horiz-adv-x="737" d="M0 0q25 29 25 49v1219q0 18 -25 49h166l-2 -303h194q106 0 193 -64q113 -82 125 -235q10 -137 -79 -239.5t-218 -102.5q-53 0 -103 18q74 14 130 49q129 84 133 250q4 131 -78 213q-68 68 -158 68h-137v-922q0 -20 24 -49h-190z" />
<glyph unicode="&#xff;" horiz-adv-x="958" d="M0 1108h203q-8 -29 4 -49l285 -465l280 465q8 12 8 24q0 16 -16 25h127q-25 -6 -74 -55l-301 -498v-506q0 -20 25 -49h-191q25 29 25 49v486l-320 524q-12 20 -55 49zM244 1274q0 29 21.5 51.5t51.5 22.5q31 0 52.5 -22.5t21.5 -51.5q0 -31 -21.5 -52.5t-52.5 -21.5 t-52 21.5t-21 52.5zM530 1274q0 29 21.5 51.5t52.5 22.5t52.5 -22.5t21.5 -51.5q0 -31 -21.5 -52.5t-52.5 -21.5t-52.5 21.5t-21.5 52.5z" />
<glyph unicode="&#x152;" horiz-adv-x="1859" d="M0 629q0 270 201.5 460.5t486.5 190.5q322 0 529 -238v158q0 23 -29 57h579v-102q-27 45 -51 45h-340v-563h340q37 0 51 45v-147q-27 45 -51 45h-340v-525h348q39 0 80 47l-28 -102h-588q29 33 29 55v162q-207 -240 -529 -240q-285 0 -486.5 191.5t-201.5 460.5zM150 631 q0 -246 156.5 -423t377.5 -175q199 2 352.5 149.5t180.5 362.5v162q-23 236 -154 370q-137 143 -379 148q-242 6 -393 -170q-141 -168 -141 -424z" />
<glyph unicode="&#x153;" horiz-adv-x="1650" d="M0 553q0 238 178 405.5t426 167.5q285 0 465 -208v139q0 20 -25 49h512v-90q-25 41 -47 41h-299v-498h299q33 0 47 41v-129q-25 39 -47 39h-299v-461h308q35 0 69 41l-24 -90h-519q25 29 25 49v141q-180 -209 -465 -208q-248 0 -426 167.5t-178 403.5zM131 555 q0 -217 138.5 -372.5t332.5 -153.5q174 2 309 132t158 318v144q-18 207 -133 325q-123 125 -334 131q-213 4 -346 -151q-125 -147 -125 -373z" />
<glyph unicode="&#x2000;" horiz-adv-x="802" />
<glyph unicode="&#x2001;" horiz-adv-x="1604" />
<glyph unicode="&#x2002;" horiz-adv-x="802" />
<glyph unicode="&#x2003;" horiz-adv-x="1604" />
<glyph unicode="&#x2004;" horiz-adv-x="534" />
<glyph unicode="&#x2005;" horiz-adv-x="401" />
<glyph unicode="&#x2006;" horiz-adv-x="267" />
<glyph unicode="&#x2007;" horiz-adv-x="267" />
<glyph unicode="&#x2008;" horiz-adv-x="200" />
<glyph unicode="&#x2009;" horiz-adv-x="320" />
<glyph unicode="&#x200a;" horiz-adv-x="89" />
<glyph unicode="&#x2010;" horiz-adv-x="630" d="M0 471h539v92h-539v-92z" />
<glyph unicode="&#x2011;" horiz-adv-x="630" d="M0 471h539v92h-539v-92z" />
<glyph unicode="&#x2012;" horiz-adv-x="630" d="M0 471h539v92h-539v-92z" />
<glyph unicode="&#x2013;" horiz-adv-x="1115" d="M0 471h1024v92h-1024v-92z" />
<glyph unicode="&#x2014;" horiz-adv-x="2139" d="M0 471h2048v92h-2048v-92z" />
<glyph unicode="&#x2018;" horiz-adv-x="233" d="M0 1104l150 168l24 -27l-41 -43q-6 -12 0 -24l68 -74l-101 -113z" />
<glyph unicode="&#x2019;" horiz-adv-x="307" d="M6 1163l100 113l103 -113l-152 -168l-22 25l39 43q6 13 0 27z" />
<glyph unicode="&#x201a;" horiz-adv-x="307" d="M-6 31l100 112l103 -112l-152 -168l-25 24l41 45q6 11 0 25z" />
<glyph unicode="&#x201c;" horiz-adv-x="497" d="M0 1104l150 168l24 -27l-41 -43q-6 -12 0 -24l68 -74l-101 -113zM256 1104l150 168l24 -27l-41 -43q-6 -12 0 -24l68 -74l-101 -113z" />
<glyph unicode="&#x201d;" horiz-adv-x="489" d="M6 1163l100 113l103 -113l-152 -168l-22 25l39 43q6 13 0 27zM252 1163l100 113l103 -113l-152 -168l-22 25l38 43q6 13 0 27z" />
<glyph unicode="&#x201e;" horiz-adv-x="499" d="M-6 31l100 112l103 -112l-152 -168l-25 24l41 45q6 11 0 25zM250 31l100 112l103 -112l-152 -168l-25 24l41 45q6 11 0 25z" />
<glyph unicode="&#x202f;" horiz-adv-x="320" />
<glyph unicode="&#x205f;" horiz-adv-x="401" />
<glyph unicode="&#x20ac;" horiz-adv-x="1273" d="M-193 512v82h195q-2 16 -2 33v49h-193v82h203q39 225 220.5 373.5t441.5 148.5q219 0 358 -49l88 -14l2 -123q-127 129 -368 129q-217 0 -383 -132.5t-211 -332.5h497v-82h-510q-2 -20 -2 -41q0 -20 2 -41h510v-82h-497q45 -199 211 -329t383 -130q274 0 415 119 l-34 -131q-242 -61 -449 -61q-250 0 -436.5 151.5t-235.5 380.5h-205z" />
<glyph unicode="&#x2122;" horiz-adv-x="714" d="M0 1081v27h305v-27q-2 12 -12 13h-119v-303q0 -6 8 -15h-57q6 8 6 15v303h-117q-10 0 -14 -13zM297 776q6 2 12 17l31 290q0 16 -18 25h53q-2 -8 0 -14l114 -256l115 256q0 6 -10 14h59q-6 -8 -6 -14l31 -303q0 -6 10 -15h-59q8 8 6 15l-27 274l-131 -295l-127 281 l-26 -260q0 -10 12 -15h-39z" />
<glyph unicode="&#x25fc;" horiz-adv-x="1105" d="M0 0v1106h1106v-1106h-1106z" />
</font>
</defs>
</svg>
