<?xml version="1.0" standalone="no"?>
<!DOCTYPE svg PUBLIC "-//W3C//DTD SVG 1.1//EN" "http://www.w3.org/Graphics/SVG/1.1/DTD/svg11.dtd" >
<svg xmlns="http://www.w3.org/2000/svg">
<metadata></metadata>
<defs>
<font id="qwigleyregular" horiz-adv-x="477" >
<font-face units-per-em="2048" ascent="1638" descent="-410" />
<missing-glyph horiz-adv-x="378" />
<glyph horiz-adv-x="2048" />
<glyph horiz-adv-x="2048" />
<glyph unicode="&#xd;" horiz-adv-x="681" />
<glyph unicode=" "  horiz-adv-x="378" />
<glyph unicode="&#x09;" horiz-adv-x="378" />
<glyph unicode="&#xa0;" horiz-adv-x="378" />
<glyph unicode="!" horiz-adv-x="399" d="M98 -92q0 55 27 95t79 40t52 -25q0 6 -137 -131q-20 0 -21 21zM207 150q0 70 129 380t172 310q31 0 70.5 -11.5t39.5 -18.5t-2 -9q-76 -102 -215 -346q-4 -6 -47 -90q-121 -240 -137 -240q-10 0 -10 25z" />
<glyph unicode="&#x22;" horiz-adv-x="317" d="M27 457q68 74 67.5 98.5t-21 43.5t-20.5 28q0 45 43 45q66 0 66 -66q0 -35 -37 -94t-90 -59q-8 0 -8 4zM184 457q35 35 50.5 65.5t15.5 43t-20.5 32.5t-20.5 29q0 45 45 45q25 0 44 -14.5t19 -50.5t-36.5 -95t-87.5 -59q-8 0 -9 4z" />
<glyph unicode="#" horiz-adv-x="1220" d="M-12 309q0 33 75 33l256 2q43 106 97 266q-197 0 -246 5.5t-49 31.5q0 35 76 35l243 -4l72 201q27 68 40 67.5t13 -64t-53 -204.5q225 -4 260 -4h35q104 270 127 270q14 0 14 -35q0 -86 -59 -233l264 8q47 0 47 -15.5t-75.5 -36t-112.5 -20.5h-144l-104 -268h225 q76 0 76 -17.5t-73.5 -34t-112.5 -16.5l-140 -4l-55 -151q-47 -117 -82 -117q-14 0 -14 23.5t76 244.5l-306 -2l-53 -149q-47 -117 -80 -117q-18 0 -18 35t35 113l49 118q-205 0 -254 5.5t-49 33.5zM385 344h303q2 8 96 266h-295z" />
<glyph unicode="$" horiz-adv-x="651" d="M-8 309l2 8q51 -27 122.5 -26.5t133 26t61.5 60.5q0 23 -110 133q-111 121 -111 201q0 152 297 227q84 103 84 156l-2 18l2 4q20 0 20.5 -43t-28.5 -119q14 4 39.5 4t34.5 -2l34 -34q20 -23 21 -41q0 -25 -68.5 -64t-87.5 -39v6q115 84 115 101q0 10 -33 10 q-127 0 -261 -65.5t-134 -143.5q0 -51 114.5 -172t114.5 -182q0 -41 -45 -72t-100 -31h-27q-94 -113 -94 -163l6 -21l-4 -4q-20 0 -20 53t45 137v2q-82 18 -121 76z" />
<glyph unicode="%" horiz-adv-x="1083" d="M147 629q0 84 134.5 255t218.5 171q78 0 78 -82q0 -25 -7 -55q0 -4 17 -5q158 0 407 119q2 2 10.5 2t45 -28.5t36.5 -43t-16 -28.5l-473 -543q-379 -446 -379 -559q0 -23 23 -41q0 -25 -37 -24.5t-37 57.5q0 129 334 592q252 348 434 555q-219 -104 -373 -107q2 0 2 -6 q0 -72 -119.5 -205t-193.5 -133h-25q-33 0 -56.5 34t-23.5 75zM219 622.5q0 -53.5 37 -53.5q59 0 162.5 117t107.5 174q-25 20 -61 74q-57 -4 -151.5 -131t-94.5 -180.5zM457 -76q0 86 135 257t217 171q78 0 78 -84q0 -29 -8 -53q0 -4 14 -8t14 -10q0 -18 -35 -35q2 0 2 -6 q0 -70 -120.5 -204t-192.5 -134h-24q-33 0 -56.5 33.5t-23.5 72.5zM528 -82q0 -55 37 -55q57 0 161.5 119.5t109.5 175.5q-35 23 -62 71q-55 -2 -150.5 -129t-95.5 -182z" />
<glyph unicode="&#x26;" horiz-adv-x="911" d="M35 152q0 119 110.5 217t280.5 133l-57 8q-45 12 -45 47q0 72 148.5 150.5t330.5 78.5q94 104 132 104.5t38 -32.5q-20 -31 -57 -67.5t-65 -68.5t-44 -49.5t-26.5 -38t-10.5 -24.5q-10 -27 -10 -43q-33 6 -33 63.5t64 139.5q-113 -6 -212.5 -57t-145.5 -100.5t-46 -67.5 q0 -27 49 -27l154 17q66 0 65 -37q0 -23 -10 -23l-27 4h-26l-27 2q-160 0 -314.5 -114.5t-154.5 -233.5t121 -164q-10 31 -10 64t9 58.5t32.5 51t41 44t60.5 45t61.5 38t74 42t69.5 38.5q-4 8 -25 8q-61 0 -134.5 -42t-84.5 -78q-4 4 -4 18q0 45 69.5 88t180.5 43 q18 0 59 -4q72 18 189 107.5t117 109.5q0 6 -11.5 9t-11.5 5q0 8 12 13q51 0 52 -49q0 -72 -138 -142l-157 -74q94 -55 94 -143q0 -121 -135 -207t-305 -86q-41 4 -54 4q37 -49 97.5 -87t101.5 -38t51 4.5t12 2.5q0 -12 -26.5 -22.5t-50.5 -10.5q-131 0 -222 160 q-100 10 -148 71.5t-48 141.5zM248 -23v-14q23 -6 53 -6q139 0 273.5 96t134.5 205q0 29 -30 57.5t-58 28.5q-53 0 -213 -148.5t-160 -218.5z" />
<glyph unicode="'" horiz-adv-x="305" d="M170 614q86 113 86 144q0 12 -21.5 33.5t-21.5 29.5q0 45 45 45q25 0 44.5 -14.5t19.5 -34.5q0 -104 -111 -190q-23 -18 -32 -18.5t-9 5.5z" />
<glyph unicode="(" horiz-adv-x="577" d="M-8 252q0 139 63.5 275.5t218 274.5t341 226t333.5 88q31 0 31 -16q0 -12 -106.5 -32.5t-116.5 -25.5q-180 -63 -338 -210.5t-247 -318.5t-89 -316q0 -195 149 -250q16 0 65.5 -12.5t49.5 -20.5q0 -23 -35 -23h-16q-129 8 -216 115t-87 246z" />
<glyph unicode=")" horiz-adv-x="1003" d="M12 -90q0 10 41 16q219 27 422 171.5t321.5 340t118.5 381t-153 242.5q-4 2 -33 8q-80 12 -80 27q0 20 41 20h8q131 -8 217 -114.5t86 -238.5t-63 -280q-96 -213 -383 -403.5t-510 -190.5q-33 0 -33 21z" />
<glyph unicode="*" horiz-adv-x="542" d="M59 485.5q0 18.5 37 20.5l135 4q-82 109 -80.5 128t9.5 19q16 0 30 -20l80 -98l25 114q14 51 22 52q14 0 14.5 -30t-20.5 -143q127 88 136.5 88.5t9.5 -8.5q0 -27 -115 -106h123q37 0 37 -10q0 -25 -168 -31q100 -129 100 -138.5t-8 -9.5q-27 0 -131 117 q-31 -152 -57 -151q-14 0 -15 30q0 12 23 125q-115 -84 -130.5 -84t-15.5 8q0 16 19 29l102 76q-162 0 -162 18.5z" />
<glyph unicode="+" horiz-adv-x="626" d="M29 307q0 25 17 32t56 7h183q0 2 77 275q16 0 16.5 -51.5t-22.5 -223.5h111q84 0 145 4q2 -2 2 -6q0 -20 -120 -45l-150 -20q-61 -231 -100 -232q-29 0 -29 41q0 6 47 182q-233 0 -233 37z" />
<glyph unicode="," horiz-adv-x="301" d="M125 -174q57 63 65 106q0 16 -20 36t-20 28q0 45 45 45q24 0 43.5 -15.5t19.5 -50t-37 -94t-88 -59.5q-8 0 -8 4z" />
<glyph unicode="-" horiz-adv-x="458" d="M29 307q0 37 39 37h96l98 2h64q53 0 114 4v-6q0 -27 -129 -47q-178 -27 -190 -27q-92 0 -92 37z" />
<glyph unicode="." horiz-adv-x="348" d="M135 -2q0 43 60 43q24 0 43.5 -15.5t19.5 -35t-19.5 -33.5t-37.5 -14q-66 0 -66 55z" />
<glyph unicode="/" horiz-adv-x="931" d="M37 -153.5q0 61.5 21.5 101.5t156.5 238q584 836 651 836q92 0 92 -39q0 -10 -14 -29l-219 -254q-635 -735 -635 -852q0 -20 23 -38q0 -25 -38 -25t-38 61.5z" />
<glyph unicode="0" horiz-adv-x="915" d="M31 113q0 121 127 330.5t221 209.5q18 0 54 -23.5t36 -37.5q0 -8 -25 -8h-14q-72 0 -203 -188.5t-131 -284.5q0 -109 121 -109q98 0 245.5 102.5t259.5 248t112 251.5q0 135 -277 135q-197 0 -342 -55l-10 -6q-6 0 -6 4q31 59 148.5 90t231 31t222 -73t108.5 -174 t-67.5 -216t-165.5 -208t-215 -156.5t-210 -63.5t-156.5 57.5t-63.5 143.5z" />
<glyph unicode="1" horiz-adv-x="368" d="M39 82q0 176 178 545q-43 -45 -115 -105q-2 4 -2 7t2 8l109 149q90 121 111.5 121t61.5 -16.5t40 -30.5q0 -2 -4 -8q-98 -135 -209 -393.5t-111 -360.5l15 -74q0 -8 -9 -8q-29 0 -48 51t-19 115z" />
<glyph unicode="2" horiz-adv-x="847" d="M39 12q569 326 758 666q14 23 14 39q0 31 -53 31q-88 0 -270.5 -74t-182.5 -131l14 -27q0 -8 -12 -8t-40.5 36t-28.5 56q0 68 179 133.5t320 65.5q164 0 164 -123q0 -90 -189.5 -275.5t-484.5 -341.5q125 25 252 25q246 0 246 -104q0 -61 -25 -62q-4 0 -2 10.5t-1 18.5 t-34.5 18t-130 10t-221.5 -12q-195 -23 -235 -24q-23 0 -37 73z" />
<glyph unicode="3" horiz-adv-x="843" d="M31 134.5q0 111.5 43 111.5q10 0 10 -15q0 -4 -13.5 -45t-13.5 -55q0 -121 181 -121q156 0 303 91.5t147 182.5t-211 91l-137 -17q-20 0 -35 37l-26 56q4 0 33.5 3t52.5 5q70 6 254 86t184 132t-209 52q-121 0 -193.5 -26.5t-72.5 -71.5l4 -21q0 -12 -8.5 -12t-21.5 37 t-13 53q0 51 76.5 85t201.5 34t216 -40t91 -106.5t-57 -114.5t-199 -120q135 -92 136 -195q0 -131 -157 -238.5t-323 -107.5q-113 0 -178 69t-65 180.5z" />
<glyph unicode="4" horiz-adv-x="770" d="M2 289q0 74 231 258l314 229q-547 -776 -53 6q0 14 65 15q63 0 64 -49q0 -18 -197 -171t-317 -251q205 47 380 47h46l88 198q63 147 63 187q0 12 -17.5 23.5t-17.5 13.5q6 16 45 16t76 -22.5t37 -58.5t-66 -179l-90 -193q37 -6 73 -33.5t36 -54t-20.5 -52t-34 -25.5 t-13.5 10l29 76q0 23 -72 22h-16q-23 -49 -68 -203.5t-45 -179t11.5 -41t11.5 -20.5t-17 -4q-72 0 -71 180q0 113 45 260q-8 2 -31 2q-123 -4 -313 -51q-20 -6 -40 -11.5t-31 -8.5t-20.5 -5t-19.5 -3t-27.5 26.5t-17.5 46.5z" />
<glyph unicode="5" horiz-adv-x="716" d="M-301 41q0 20 12 20q86 -154 250 -153q115 0 271.5 76.5t271 190.5t114.5 204q0 100 -180 100q-111 0 -256 -76q-25 -14 -50.5 -41.5t-35.5 -27.5t-33.5 26.5t-23.5 40.5q31 55 69.5 132t59 115t43.5 79q39 72 53.5 72t80 -10.5t148 -10.5t166.5 10.5t102.5 10.5 t18.5 -5.5t-20 -23.5q-117 -98 -342 -98q-66 0 -103 18l-120 -180q117 37 230.5 37t182 -51.5t68.5 -145.5q0 -135 -107.5 -251.5t-254 -177t-283.5 -60.5t-234.5 50t-97.5 130z" />
<glyph unicode="6" horiz-adv-x="759" d="M20 115q0 178 254 469q254 297 435 297q37 0 76.5 -27t39.5 -49.5t-4 -22.5q-31 31 -51 31q-96 0 -266 -148.5t-301 -331.5t-131 -276.5t92 -93.5q117 0 298 127t181 227q0 63 -72.5 63.5t-200.5 -77.5t-149 -141q-8 -23 -15 -23t-7 21q0 96 117.5 187t212 91t152.5 -43 t58 -108q0 -129 -177 -256t-341 -127q-201 0 -201 211z" />
<glyph unicode="7" horiz-adv-x="667" d="M27 -12q0 131 213 377.5t381 326.5q-59 6 -132 6q-268 0 -372 -63q-18 -12 -31.5 -48t-15.5 -36q-20 0 -20.5 52t30.5 106q209 76 449.5 76t240.5 -74l-12 -17q35 -18 35 -59q-422 -201 -670 -594q-53 -86 -53 -137q0 -12 11 -26.5t11 -19.5t-10 -5q-27 0 -41 44t-14 91z " />
<glyph unicode="8" horiz-adv-x="937" d="M39 39q0 76 115 180l180 137q-31 20 -74 84t-43 97q0 59 88 123.5t205 105.5t213 47h4q41 0 82 -16.5t41 -38.5q0 -8 -10 -8q-61 0 -154 -31q-408 -135 -407 -223q0 -8 54 -51.5t60 -43.5q0 -8 28 14.5t50 39.5q8 4 309 213q147 119 199 247h4q12 0 12 -18 q0 -121 -219 -303l-330 -238q158 -143 158 -231q0 -68 -69 -129q-90 -84 -234 -84q-90 0 -176 38t-86 89zM106 4l29 -14q37 0 58 8l8 -2l16 8l10 -2q12 0 62 18q225 86 225 168q0 16 -47 69.5t-70 53.5q-23 -6 -122 -86t-134 -125t-35 -96z" />
<glyph unicode="9" horiz-adv-x="624" d="M0 506q0 96 143.5 206.5t255.5 110.5q37 0 91.5 -39t54.5 -83t-39 -44q-20 0 -30.5 60.5t-47.5 60.5q-88 0 -228.5 -120.5t-140.5 -208.5q0 -41 63.5 -41t132.5 23.5t122 55.5q96 59 188 148q14 0 44 -22.5t30 -39.5q-12 -16 -24.5 -40.5t-27 -50t-30.5 -52.5 q-242 -420 -242 -557q0 -59 35 -59l35 4q10 0 14 -8q-6 -18 -49 -19q-104 0 -104 143q0 98 72.5 274.5t152.5 283.5q-203 -147 -303 -148q-63 0 -115.5 49t-52.5 113z" />
<glyph unicode=":" horiz-adv-x="348" d="M135 -2q0 43 60 43q24 0 43.5 -15.5t19.5 -35t-19.5 -33.5t-37.5 -14q-66 0 -66 55zM197 297q0 45 59 45q23 0 43 -16.5t20 -36t-18 -32.5t-39 -13q-66 0 -65 53z" />
<glyph unicode=";" horiz-adv-x="348" d="M125 -174q57 63 65 106q0 16 -20 36t-20 28q0 45 45 45q24 0 43.5 -15.5t19.5 -50t-37 -94t-88 -59.5q-8 0 -8 4zM197 297q0 45 59 45q23 0 43 -16.5t20 -36t-18 -32.5t-39 -13q-66 0 -65 53z" />
<glyph unicode="&#x3c;" horiz-adv-x="491" d="M131 340q0 23 96.5 155t114.5 132q10 -1 10 -11q0 -27 -151 -235q150 -186 149.5 -205.5t-12.5 -19.5h-2l-14 6q-37 55 -187 168q-4 4 -4 10z" />
<glyph unicode="=" horiz-adv-x="626" d="M28.5 307q0.5 37 39.5 37l397 2q86 0 147 4q2 -2 2 -6q0 -18 -138 -46t-206 -28q-242 0 -241.5 37zM82 492q0 39 37 38l395 2q117 0 148 3v-5q0 -20 -135.5 -46.5t-207.5 -26.5q-238 0 -237 35z" />
<glyph unicode="&#x3e;" horiz-adv-x="491" d="M131 154q0 23 154 235q-152 193 -152 209t12 16h5l12 -4q39 -55 186 -170q4 -2 4 -8q0 -25 -98 -157t-115 -132q-8 0 -8 11z" />
<glyph unicode="?" horiz-adv-x="618" d="M98 -92q0 55 27 95t79 40t52 -25q0 6 -137 -131q-20 0 -21 21zM150 709q0 51 70.5 80.5t198.5 29.5t226 -46t98 -110.5t-85 -123t-187 -99.5q-272 -109 -272 -184q0 -43 104 -96q35 -16 35 -19q0 -14 -48 -14t-92 52t-44 112.5t79.5 122t176.5 100.5q256 104 256 172 q0 53 -233.5 53t-233.5 -86l8 -32q0 -10 -6 -11q-12 0 -31.5 43t-19.5 56z" />
<glyph unicode="@" horiz-adv-x="1300" d="M23 266q0 145 88 290.5t223 252t301 173.5t315.5 67t232.5 -55.5t83 -149.5q0 -45 -39 -142l12 -79q0 -166 -144.5 -317.5t-347 -236.5t-374.5 -85q-350 0 -350 282zM104 231q0 -215 244 -215q309 0 584 244q213 190 213 320q0 4 -6 4q-223 -360 -361 -361 q-53 0 -84.5 45t-31.5 119t30 178q-2 0 -55 -86q-166 -258 -266 -258q-41 0 -75 39t-34 82q0 76 73 199t176 218t177 95h21q74 0 127 -27.5t53 -76.5q0 -23 -19 -23q-2 0 -6 4q-31 78 -103.5 78t-175 -97.5t-170 -213t-67.5 -163.5t21 -48q90 0 389 413q0 2 11 2t43 -17 t32 -32q-94 -170 -94 -305q0 -88 53 -88q68 0 180 164l158 229l-2 23q0 45 10 76.5t19 32t36 -28.5q16 16 17 69q0 88 -73 140.5t-196 52.5q-190 0 -390 -120t-329 -305t-129 -362z" />
<glyph unicode="A" horiz-adv-x="1187" d="M35 -4q8 2 10 2l59 -10q152 0 455 237v2l-110 -4q-49 0 -85 28t-36 68l4 5q0 2 2 2l6 -4q20 -21 170 -21l72 2h67q92 74 223.5 205t184.5 209l63 92q8 0 8 -23q0 -92 -145 -251l-213 -226l244 25q66 141 143.5 287.5t97 184.5l39 76t44 70.5t46 32.5t53 -13.5t31.5 -27.5 q-27 -39 -58.5 -92t-68.5 -115q-362 -606 -362 -850q0 -29 16 -71q20 -49 13 -49q-41 0 -67 50t-26 129t84 337q-29 0 -157.5 -20.5t-159.5 -29.5q-335 -290 -523 -290h-1q-80 0 -123 53z" />
<glyph unicode="B" horiz-adv-x="1085" d="M20 797q0 23 15 28q385 154 741 154q412 0 412 -201q0 -109 -145.5 -215t-356.5 -157q158 -12 252 -79t94 -180.5t-113.5 -195.5t-269.5 -82q-90 0 -178 29.5t-88 74.5q0 4 4 4l12 -4q46 -30 115 -30h4q176 0 307 84t131 160.5t-103 130t-200.5 53.5t-152.5 -23 q-20 4 -21 27q0 29 43 41l66 10q227 61 354 158.5t127 218.5q0 59 -67.5 96t-203.5 37t-227.5 -23.5t-300.5 -94t-215 -70.5q-35 0 -35 49zM123 -76q0 266 297 768q86 162 114.5 162t61.5 -13.5t33 -25.5q0 -4 -2 -6q-442 -641 -443 -948q0 -39 16.5 -76t20.5 -37v2 q0 -10 -12 -10q-35 0 -60.5 55t-25.5 129z" />
<glyph unicode="C" horiz-adv-x="1050" d="M49 163q0 140 74 279.5t192.5 250t279.5 183t304 72.5t229 -51q47 111 91 111q70 0 69 -27q-98 -127 -121 -158q-121 -164 -120 -239l8 -31q0 -4 -4 -4q-25 0 -25 53q0 90 82 258q-63 57 -178 58q-174 0 -358.5 -112t-303 -281t-118.5 -314t92 -230t235 -85 q281 0 506 237q29 29 41 29q8 0 8 -15.5t-18 -35.5q-111 -125 -285 -196t-329.5 -71t-253 89.5t-97.5 229.5z" />
<glyph unicode="D" horiz-adv-x="1421" d="M43 793q0 20 18.5 29t118.5 38q367 111 672 111q242 0 397.5 -115t155.5 -305q0 -117 -66.5 -235.5t-182.5 -215t-291 -157t-372.5 -60.5t-197.5 33q0 18 31 18h32q14 -2 37 -2q203 0 385.5 63.5t300 161t186 209t68.5 212.5q0 158 -125 251t-321 93h-15 q-281 -6 -788 -193q-43 0 -43 64zM176 -63q0 254 287 757q0 8 21.5 44t35.5 61q29 51 50.5 51t50 -11.5t28.5 -23.5q-53 -92 -110 -180q-313 -543 -314 -741q0 -23 14.5 -60t14.5 -43l-4 -2q-33 0 -53.5 38t-20.5 110z" />
<glyph unicode="E" horiz-adv-x="1003" d="M27 375l59 -13q84 238 326.5 420.5t472.5 182.5q80 0 108 -17q20 74 45 84q6 2 15 2q72 0 71 -26q-4 0 -46 -57.5t-84 -129t-42 -102.5l9 -31q0 -4 -5 -4q-31 0 -31 71q1 1 1 3q0 74 47 153q-29 4 -51 4q-213 0 -438.5 -171t-303.5 -386q252 0 385 7q123 8 256 41 q14 0 15 -11q0 -39 -254 -76.5t-426 -42.5q-6 -39 -6 -73q0 -137 92 -222t235 -85q287 0 506 237q29 29 41 29q8 0 8 -15.5t-18 -35.5q-111 -125 -285 -196t-329.5 -71t-253 89.5t-97.5 242.5q0 45 10 107q-9 -1 -25 35q-15 34 -16 46q0 11 9 11z" />
<glyph unicode="F" horiz-adv-x="974" d="M55 711q0 70 147.5 146.5t323.5 122.5t281 46q233 0 233 -209q0 -94 -26.5 -156.5t-155.5 -265.5q113 23 132.5 23t19.5 -7.5t-6.5 -11.5t-23.5 -8t-34 -6q-55 -12 -104 -20q-234 -375 -234 -545l10 -76q0 -10 -2 -10q-16 0 -28.5 36.5t-12.5 77.5q0 137 183 502 q-43 -10 -152 -28q-221 -46 -313 -46h-1q-91 0 -91 93q0 4 4 6q63 -16 195 -17h5q132 0 371 27l111 225q66 143 65 240q0 141 -157 141q-135 0 -353.5 -104.5t-345.5 -229.5q-4 -4 -12 -4q-29 0 -29 58z" />
<glyph unicode="G" horiz-adv-x="1241" d="M49 161.5q0 141.5 73 279t189.5 250t278.5 185t301 72.5t219 -37q27 47 37 64q35 45 82 45t47 -21q0 -6 -47 -50t-66 -66q27 -16 46.5 -36t19.5 -24q0 -2 -27.5 -35.5t-54.5 -66.5q-72 -92 -76 -121l6 -6q0 -10 -10 -10q-31 0 -31 61q0 115 58 234q-76 39 -168 39 q-184 0 -372.5 -116t-307.5 -286t-119 -315.5t93 -225t247 -79.5q236 0 514 319q53 57 70 86l20 59q-324 -63 -405 -63q-25 0 -45.5 24.5t-20.5 63.5q0 8 8 8l121 -12q233 0 356 12q12 41 30 41t63 -26l61 10q16 0 16 -11.5t-67 -23.5q-147 -373 -328.5 -630t-300.5 -257 q-37 0 -37 19q0 6 27 16q92 35 106 45q164 143 334 567q-283 -299 -583 -299q-162 0 -259.5 88t-97.5 229.5zM1071 662q31 38 109 159l-23 21q-63 -104 -86 -180z" />
<glyph unicode="H" horiz-adv-x="1120" d="M18 369q1 6 9 6l39 -10q213 0 253 6q115 266 283 555q14 14 69.5 14t55.5 -27l-98 -157q-123 -209 -203 -381l338 16q76 4 213 25q84 164 178 314.5t118.5 150.5t52.5 -11.5t28 -23.5q-23 -31 -50.5 -70t-56.5 -78q-307 -410 -307 -610q0 -92 74 -92l69 10q6 0 7 -4 q0 -10 -37 -23.5t-58 -13.5q-47 0 -76.5 41t-29.5 103q0 117 69 262q-332 -80 -571 -80q-149 -328 -149 -490q0 -51 12 -73.5t12 -26.5t-10 -4q-74 0 -74 153.5t107 430.5q-119 -8 -166 -9q-100 0 -101 97z" />
<glyph unicode="I" horiz-adv-x="718" d="M-31 -33q1 10 11 10l120 -10h117v17q0 211 500 888q-389 -33 -463 -147q-2 -6 -8 -29q-8 -43 -29 -43q-6 0 -6 9q0 238 543 260q27 63 67 63q27 0 62 -12t35 -27q0 -6 -15 -22q37 -2 37 -6q0 -8 -13.5 -22.5t-23.5 -14.5h-37q-266 -297 -428 -551t-168 -361q215 4 328 33 q8 2 19.5 2t11.5 -8q0 -14 -51 -23l-299 -57q15 -22 55 -22h4l78 14q10 0 10 -4q-6 -14 -49 -28.5t-66 -14.5q-55 0 -80 49q-152 -27 -196.5 -27t-55 17.5t-10.5 66.5z" />
<glyph unicode="J" horiz-adv-x="1302" d="M18 395q0 98 195 235.5t448.5 237t413.5 99.5q352 0 352 -236q0 -141 -118.5 -323.5t-284.5 -334t-351.5 -256t-310.5 -104.5q-70 0 -116.5 31t-46.5 82q0 201 366 438q270 178 555 273q4 0 9.5 2t7.5 2t2 -4q0 -12 -31 -27q-864 -457 -864 -688q0 -84 82 -84 q119 0 280 110q279 190 503 472t224 458q0 158 -225 158q-180 0 -475 -127q-217 -96 -400.5 -225t-183.5 -203q0 -43 49 -74q2 0 2 -5t-16 -5t-41 35t-25 63z" />
<glyph unicode="K" horiz-adv-x="931" d="M14 -63q0 248 291 757q78 156 107 156q23 0 51.5 -13.5t28.5 -21.5q-29 -43 -41.5 -63.5t-32 -51t-39.5 -65.5q-313 -542 -313 -741q0 -25 14 -62q16 -43 10 -43q-31 0 -53.5 36t-22.5 112zM255 354q15 20 24.5 20.5t11.5 -14.5q104 70 244 199l182 166q129 104 209 138 t139 34t104 -14.5t45 -28.5t-20 -14q-53 14 -70 14q-92 0 -227 -88t-339 -244.5t-253 -193.5q115 -238 283 -386.5t276 -148.5q55 0 56 51q0 49 -103 201l4 4q12 0 43 -31q98 -94 99 -172q0 -47 -42 -77.5t-108 -30.5q-129 0 -261 117.5t-239 312.5q-74 155 -74 161 q0 4 16 25z" />
<glyph unicode="L" horiz-adv-x="958" d="M2 -109q0 59 17.5 72.5t123.5 36.5q23 176 125.5 434t228.5 452.5t201 194.5q49 0 99.5 -30.5t50.5 -65.5q0 -68 -115 -242t-282 -370q-6 -14 -44 -60.5t-51 -46.5l-6 4q0 8 113 152q319 412 319 549q0 41 -26 41q-35 0 -86 -72q-156 -223 -290 -490.5t-175 -437.5 q236 49 426 49q305 0 305 -141q0 -18 -27.5 -69.5t-62.5 -51.5q-4 4 -4 6q33 33 46 63t13 40q0 96 -254 96q-168 0 -461 -88q0 -37 15.5 -90t15.5 -56t-4 -3q-74 0 -80 135q-33 -10 -113 -37q-18 0 -18 26z" />
<glyph unicode="M" horiz-adv-x="1421" d="M43 -55q0 287 336 866q14 33 56 103.5t67.5 70.5t57.5 -12t32 -29q-227 -373 -293 -506q299 416 522 416q109 0 109 -125q0 -158 -191 -545q106 98 363 361q18 29 97 111.5t108 82.5q6 0 6 -6q-461 -508 -627 -651l-39 -82q-14 -20 -65.5 -20t-51.5 28q-2 0 155 313.5 t157 417.5q0 57 -45 58q-115 -2 -256.5 -133.5t-270.5 -331.5q-164 -238 -164 -445q0 -47 8.5 -72.5t12.5 -29.5q10 -10 10 -17.5t-10 -7.5q-31 0 -57.5 56.5t-26.5 128.5zM1104 42q0 77 23.5 196.5t64.5 245.5t104.5 217.5t130.5 91.5q31 0 31 -11.5t-74 -142.5 q-196 -354 -196 -598q0 -162 53 -162q49 0 141 215q14 27 21.5 27t7.5 -13.5t-2 -19.5q-59 -235 -179 -235h-1q-57 0 -91 56t-34 133z" />
<glyph unicode="N" horiz-adv-x="968" d="M59 4q0 274 322 813q84 168 123 168q25 0 56.5 -12t31.5 -29q-53 -90 -113.5 -191.5t-90.5 -152.5t-42 -72q-141 -256 -196 -434q133 217 626 658l160 145q31 27 84 31q25 0 24 -15l-2 -8q-301 -596 -301 -876q0 -150 53.5 -150t141.5 215q14 27 22.5 27t8.5 -10.5 t-4 -22.5q-66 -235 -178 -235h-1q-55 0 -91 55t-36 154.5t52.5 299t124.5 359.5l-420 -379q-285 -288 -285 -438q0 -41 25 -78q0 -8 -11 -8q-37 0 -60.5 58t-23.5 128z" />
<glyph unicode="O" horiz-adv-x="1210" d="M45 164q0 182 143.5 361.5t359.5 290t421 110.5q143 0 229 -56.5t86 -152.5q0 -51 -43 -139q8 -25 8 -68q0 -199 -221 -395q-168 -147 -319.5 -208t-350.5 -61q-135 0 -224 90.5t-89 227.5zM158 182q0 -135 78.5 -208.5t217 -73.5t294 70.5t276.5 204.5t137 290 q-104 -117 -278 -209q-8 -4 -11.5 -4t-3.5 2q0 -2 58 45q156 131 233 227q-14 80 -76.5 140.5t-154.5 87.5q-35 8 -126 13t-100 9l7 4q72 23 167 23t197.5 -48t147.5 -128q14 36 14 73q0 88 -72.5 140.5t-193.5 52.5q-184 0 -372.5 -99.5t-313.5 -267.5t-125 -344z" />
<glyph unicode="P" horiz-adv-x="1280" d="M10 692q0 51 84 92q354 168 762 168q260 0 407.5 -75.5t147.5 -213t-197.5 -250t-402.5 -112.5q-113 0 -225 41q-66 -92 -133.5 -263t-67.5 -247l4 -25q0 -8 -8 -8q-57 0 -57 92q0 178 142 458t357 532v2q-498 -41 -768 -238q-4 -4 -12 -4q-33 0 -33 51zM598 371 q40 -13 138 -13h2q96 0 250 52t267 137.5t113 167.5q0 168 -510 168q53 -33 53 -37q-313 -440 -313 -475z" />
<glyph unicode="Q" horiz-adv-x="1228" d="M66 492.5q0 17.5 61 87.5q141 160 334.5 260t386.5 100q156 0 293 -122t137 -272.5t-144.5 -330.5t-353.5 -291q254 -182 384 -243.5t256 -61.5t126 94q0 102 -149 195q-70 43 -175 78q-95 30 -105 30h-1q0 4 23 4q211 0 330.5 -107.5t119.5 -252.5q0 -129 -141 -129 q-166 0 -379 129q-63 39 -330 244q-145 -72 -286.5 -72t-236.5 92t-95 242q0 219 199.5 402.5t437.5 183.5q90 0 96 -37q-23 12 -78 12q-100 0 -249.5 -103.5t-261 -245.5t-111.5 -243q0 -223 266 -223q106 0 237 51q-199 143 -335 143q-76 0 -121 -38q-6 0 -6 4q0 29 54 51 t93 22q127 0 358 -163q211 96 354.5 276t143.5 352q0 135 -88 208t-240 73q-207 0 -458.5 -129t-335.5 -287q-10 0 -10 17.5z" />
<glyph unicode="R" horiz-adv-x="1193" d="M2 684q0 70 138.5 130t325.5 93t357 35h27q256 0 413.5 -64.5t157.5 -172t-105.5 -198.5t-265 -143.5t-319.5 -52.5q-55 0 -100 6q244 -393 364 -393q47 0 60 51l16 86q21 -14 21 -57q0 -41 -38 -82t-101.5 -41t-189.5 130t-255 335q-164 -279 -164 -414q0 -37 25 -51 q0 -6 -11 -6q-43 0 -43 119q0 182 146 432q-33 59 -33 76q0 39 53 39q23 0 33 -25q172 258 350 344q6 2 15.5 2t28 -10t18.5 -19.5t-6 -9.5l-95 -94q-119 -121 -262 -301q31 -55 52.5 -68.5t80.5 -13.5q139 0 299 59.5t268.5 147.5t108.5 168t-123 126t-323 46 q-526 0 -850 -225q-27 -16 -41 -17q-33 0 -33 33z" />
<glyph unicode="S" horiz-adv-x="651" d="M33 6l4 12q88 -41 188.5 -41t199.5 39t99 93q0 31 -88 124q-170 178 -212 242t-42 152q0 227 424 338q188 43 215 43t49 -7l52 -53q33 -37 36 -61q0 -43 -109.5 -101.5t-133.5 -58.5l-2 10l104 72q74 49 74 80q0 18 -51 18q-123 0 -264.5 -44t-243 -121.5t-101.5 -154.5 t178.5 -263.5t178.5 -280.5q0 -68 -67.5 -113t-162.5 -45h-51q-197 0 -274 121z" />
<glyph unicode="T" horiz-adv-x="1019" d="M25 915q0 119 118 119q29 0 64 -6q694 -178 991 -178q182 0 182 80q0 55 -114 92l-111 43q0 10 27 10q80 0 170 -70.5t90 -140.5q0 -80 -156 -80h-8q-211 8 -350 37q-393 80 -446.5 91.5t-85 17.5t-83.5 14q-90 14 -170 14t-80 -43q0 -76 138.5 -151.5t226.5 -75.5l39 2 q14 0 14 -8q0 -20 -49 -20q-125 0 -266 81.5t-141 171.5zM471 -7q0 79 83 275.5t205 362.5t208 166q47 0 47 -31q0 -6 -10 -27l-130 -129q-350 -391 -350 -692q0 -57 60 -57q41 0 98 28l51 29q8 0 8 -4q0 -25 -65.5 -50.5t-87.5 -25.5q-55 0 -86 38t-31 117z" />
<glyph unicode="U" horiz-adv-x="780" d="M10 535l4 8q61 78 220 187.5t219 109.5q33 0 60.5 -26t27.5 -56.5t-129 -235.5t-175.5 -301t-46.5 -190q0 -35 29 -35q53 0 228.5 155.5t232.5 268.5q119 244 245 384t228 140q45 0 45 -41q0 -63 -80 -160q-47 -55 -94 -106q-125 -133 -311 -342q-33 -53 -69 -199.5 t-36 -216.5q0 -248 86 -340q2 0 1 -3t-5 -5q-51 0 -100 148.5t-49 261t32 215.5q-193 -236 -305 -236q-55 0 -103 60.5t-48 115.5q0 137 131 361l211 342q-102 -33 -226 -115q-217 -152 -221 -152zM737 412q0 -2 2 -6q150 145 287 304.5t137 192.5q0 10 -12 10 q-59 0 -193.5 -160.5t-220.5 -336.5v-4z" />
<glyph unicode="V" horiz-adv-x="1026" d="M53 580.5q0 9.5 8 23.5q90 158 213 265.5t218 107.5q208 0 208 -296q0 -101 -27.5 -216t-97.5 -336q311 459 523.5 659.5t384.5 200.5q57 0 97 -23.5t40 -64.5q0 -14 -4 -14l-23 37q-22 34 -66 34h-3q-100 0 -284.5 -167.5t-337 -355t-249.5 -335.5q-117 -231 -149 -231 q-20 0 -47 14.5t-27 28.5l66 209q125 395 129 629q0 192 -110 192h-1q-63 0 -165.5 -72.5t-192.5 -177.5q-12 -25 -47 -73t-52 -48q-4 0 -4 9.5z" />
<glyph unicode="W" horiz-adv-x="1540" d="M23 -35q0 156 165.5 393.5t370.5 409.5t315 172q37 0 37 -22q0 -8 -10 -13q-127 -66 -240.5 -164t-263 -267t-232.5 -319.5t-83 -233.5t63 -83q57 0 99.5 17.5t158 120t371.5 381t286 278.5t30 -25q-12 -188 -13 -278q0 -395 92.5 -395t164 182t71.5 346q0 248 -127 289 q-6 4 -6 6q0 20 65.5 20t106.5 -85t41 -228q0 -229 -92.5 -397t-233.5 -168q-168 0 -168 344q0 131 25 313q-57 -59 -267 -310t-341.5 -356.5t-239.5 -105.5q-61 0 -103 53.5t-42 124.5z" />
<glyph unicode="X" horiz-adv-x="989" d="M-4 -182.5q0 30.5 12 61.5q27 72 209 297t256 277q-49 147 -129 335h-2q-20 0 -20 -53l2 -10l-7 -4q-10 4 -10 119q0 78 66 78q27 0 91 -178.5t87 -229.5q546 491 579 491q16 0 37 -18t21 -37q0 6 -244 -199.5t-369 -314.5l84 -223q53 -137 125 -213q27 -29 42.5 -29 t22.5 3t34.5 54.5t68.5 163.5q8 -23 9 -43q0 -94 -50.5 -152.5t-130.5 -58.5q-76 0 -143 136q-51 100 -129 301q-289 -252 -485 -559q-16 -25 -21.5 -25t-5.5 30.5z" />
<glyph unicode="Y" horiz-adv-x="1105" d="M33 720q0 5 6 15q84 123 188.5 208t178.5 85q150 0 149 -188q0 -213 -188 -643l309 432q254 344 318.5 344t64.5 -27q-2 -4 -12 -12q79 -79 79 -166q0 -51 -16 -106q31 10 53.5 10t22.5 -7.5t-9.5 -15.5t-21.5 -14q-41 -23 -57 -31q-63 -195 -307 -536 q-223 -328 -344 -455t-195 -127q-96 0 -96 90q0 55 86 202.5t200 272.5q55 61 225.5 213t307.5 285q16 14 42.5 133t26.5 174t-28 55q-82 0 -590 -706l-100 -139q-27 -55 -72 -56h-1q-44 0 -44 41v6l143 338q70 164 105 301.5t37 190.5q0 125 -80 125q-39 0 -132.5 -71 t-169 -142.5t-75.5 -83.5h2q-6 0 -6 5zM221 -455.5q0 -13.5 10 -13.5h9q8 0 49 35q154 129 345 394t308 509q-532 -481 -698 -862q-23 -49 -23 -62.5z" />
<glyph unicode="Z" horiz-adv-x="1370" d="M6 -43q0 8 12.5 14t90.5 29l-3 14q0 31 108 114t223.5 155.5t316.5 187.5q489 276 493 289q-66 74 -295 74q-63 0 -263 -20.5t-236 -20.5q-84 0 -84 49q0 20 18 35q17 -17 33 -17h1q19 0 245 26q230 26 368 27q209 0 252 -198q20 -23 21 -72q0 -12 -107 -55l-129 -56 q-295 -139 -684 -380l-219 -134q508 86 842 86q160 0 260 -52t100 -142q0 -139 -149 -236q-46 -29 -59 -29t-13 7q2 2 2 4q176 158 176 260q0 119 -391 119q-186 0 -406.5 -31t-354.5 -64.5t-134 -48.5h2q-35 0 -35 50z" />
<glyph unicode="[" horiz-adv-x="903" d="M12 -27q0 182 197 561t350 488q43 31 184.5 31t141.5 -33l-2 -19q-6 -2 -21 -2l-112 7q-59 0 -84 -11q-63 -33 -192.5 -229.5t-235 -417.5t-105.5 -311q0 -86 119 -86l117 6q45 0 45 -16q0 -23 -142 -23q-260 0 -260 55z" />
<glyph unicode="\" horiz-adv-x="849" d="M14 1038q6 10 37 10.5t67 -31.5t134 -163q248 -313 401.5 -600.5t153.5 -437.5q0 -51 -41 -52q4 4 4 15q0 215 -214 569t-542 690z" />
<glyph unicode="]" horiz-adv-x="858" d="M29 -33q8 2 24 2l109 -6q66 0 86 10q51 27 154.5 171.5t209.5 336.5q166 309 166 447q0 88 -119 88l-116 -8q-45 0 -45 20.5t141 20.5q260 0 260 -58q0 -182 -197.5 -560t-349.5 -488q-37 -29 -180 -29t-143 33v20z" />
<glyph unicode="^" horiz-adv-x="571" d="M98 467q0 16 97.5 93t113.5 81l8 -4q55 -61 193 -166l10 -16l-8 -11q-29 2 -114 54.5t-111 81.5q-160 -129 -174.5 -129t-14.5 16z" />
<glyph unicode="_" horiz-adv-x="1245" d="M12 -131q0 37 27 37h1143q39 0 41 -43l-9 -10q-205 0 -574.5 -10.5t-600.5 -10.5q-27 0 -27 37z" />
<glyph unicode="`" horiz-adv-x="342" d="M33 602v14q0 27 20 27q10 0 138 -96t128 -109.5t-12 -13.5q-31 10 -133 71.5t-121.5 78t-19.5 28.5z" />
<glyph unicode="a" horiz-adv-x="577" d="M12 58.5q0 60.5 73 184.5t175 220t176 96h21q76 0 129 -29.5t53 -78.5q0 -23 -18 -23q-6 0 -7 6q-35 76 -100 76q-115 0 -265.5 -191.5t-150.5 -291.5q0 -39 21 -39q92 0 387 415q4 4 13 4.5t42 -19t33 -34.5l-29 -53q-68 -142 -68 -250q0 -110 54 -110l20 4l4 -2 q0 -19 -50 -19h-1q-48 0 -80 45t-32 122t28 175q0 -6 -55 -84q-168 -260 -264 -260q-41 0 -75 38t-34 98.5z" />
<glyph unicode="b" horiz-adv-x="606" d="M-6 -20.5q0 2.5 4 6.5q66 -47 125 -47q135 0 257 166.5t122 330.5q0 63 -43 64q-88 0 -209 -179.5t-121 -283.5q0 -16 14 -49q0 -6 -17 -6t-29.5 28.5t-12.5 65.5q0 115 98 342l150 344q47 129 47 175t-37 46l-72 -14q-14 0 -14 12q0 31 76 31t119 -27t43 -75t-80 -205 l-107 -209q66 45 150 45q141 0 141 -138q0 -158 -150.5 -346t-285.5 -188q-100 0 -164 100q-4 8 -4 10.5z" />
<glyph unicode="c" horiz-adv-x="495" d="M-10 78q0 123 124 302t238 179q41 0 85 -29.5t44 -64.5q0 -96 -65 -96q-18 0 -21 10q25 55 25 91t-17 36q-25 0 -81 -47q-100 -82 -174 -205t-74 -207t63 -84q72 0 162 76q57 53 134 135t79 82q12 0 12 -9t-4 -18q-215 -313 -356 -313q-174 0 -174 162z" />
<glyph unicode="d" horiz-adv-x="624" d="M-2 70q0 127 138 310t247 183q29 0 64.5 -17.5t35.5 -37t-18 -19.5l-41 23q-72 0 -215 -206t-143 -290q0 -31 17 -30.5t70.5 45.5t144.5 150.5t185 240.5q41 90 128 303t87 215q0 33 -41 33l-69 -15q-14 0 -15 13q0 33 93 33q141 0 141 -97q0 -33 -126 -290t-130 -267 q-109 -238 -109 -381q0 -84 41 -84l62 23l6 -2q0 -14 -29.5 -28.5t-46.5 -14.5q-92 0 -92 147q0 92 66 314q-76 -154 -168.5 -276t-157.5 -122q-41 0 -83 50.5t-42 93.5z" />
<glyph unicode="e" d="M-10 78q0 125 124 303t240 178q49 0 87 -31.5t38 -76.5q0 -78 -96 -154t-186 -76q-18 0 -19 8l6 11q236 74 236 241q0 25 -17 25q-25 0 -81 -47q-100 -82 -174 -205t-74 -207t63 -84q72 0 162 76q57 53 134 135t79 82q12 0 12 -9t-4 -18q-215 -313 -356 -313 q-174 0 -174 162z" />
<glyph unicode="f" horiz-adv-x="452" d="M-608 -455q0 12 7 12.5t13 -22.5q45 -156 201 -156q219 0 430 517q37 92 95.5 264t92.5 272q-98 27 -98 115q0 18 10 18l105 -18q4 0 13 -1t13 7q20 31 31 74q76 240 138.5 336t156.5 96q47 0 82 -26.5t35 -67.5q0 -98 -64 -99q-20 0 -20 13q16 35 16 89t-31 54 q-63 0 -151 -176q-14 -29 -56 -144.5t-42 -128.5q0 -20 26 -20l260 6q6 0 7 -8q-279 -96 -343 -111q0 -14 -65 -209q-143 -485 -292.5 -700t-334.5 -215q-88 0 -161.5 61.5t-73.5 167.5z" />
<glyph unicode="g" d="M-858 -697.5q0 140.5 157.5 281t390 222t455.5 81.5q104 0 179 -18q8 25 8 45q0 70 -17 98q-79 -74 -145 -74v0q-66 1 -115 64.5t-49 134.5q0 143 158 297q0 117 25.5 158t96 41t154.5 -135q147 -27 148 -109q0 -18 -11.5 -37.5t-23.5 -19.5t-12 8q20 14 20 33 q0 61 -98 61q2 -16 2 -43q0 -196 -119 -346q31 -57 31 -154q0 -20 -2 -38q84 -35 140 -90.5t56 -105.5t-24 -50q-6 0 -10 12q16 23 16 43q0 43 -55.5 86t-120.5 64q-25 -211 -157 -398.5t-332.5 -299t-411.5 -111.5q-143 0 -238.5 79.5t-95.5 220zM-821 -699.5 q0 -95.5 72.5 -153.5t203.5 -58q283 0 536 224t324 511q-49 10 -135 10q-195 0 -383 -50t-321 -127t-215 -169t-82 -187.5zM86 70q0 -106 82 -107q72 0 135 100l-106 254q-43 -43 -77 -116.5t-34 -130.5zM201 463q68 45 127 45h16q-29 67 -86 67t-57 -110v-2zM215 338 q0 -16 109 -244q73 107 73 236q0 57 -18 102q-35 -12 -99.5 -46t-64.5 -48z" />
<glyph unicode="h" horiz-adv-x="534" d="M-66 -2q0 12 13 12h4q55 33 92 62q41 156 123 344l117 268q78 178 82 260q0 45 -39 45l-72 -14q-10 0 -10 12q0 31 78.5 31t116.5 -28.5t38 -73t-92 -232.5l-121 -248l-121 -278q84 74 167 173t125 159.5t48 60.5h11q74 0 73 -29q0 8 -10 -10q-57 -104 -102 -251.5 t-45 -192.5q0 -125 43 -125q14 0 59 39q6 0 6 -17q0 -53 -58.5 -53t-95 59.5t-36.5 139t39 186.5q-133 -135 -254 -227q-41 -113 -41 -158v-10q18 -12 18 -21q0 -18 -24 -18q-12 0 -23 10q-109 113 -109 125zM-25 -14q19 -31 52 -60q-2 10 -2 29.5t6 56.5q-47 -25 -56 -26z " />
<glyph unicode="i" horiz-adv-x="315" d="M31 20q0 168 123 449q0 8 11 30.5t17 28.5q14 14 39 15q72 0 78 -29q-63 -108 -120.5 -275t-57.5 -230.5t26 -63.5q18 0 47 22.5t35.5 28.5t14.5 12q8 0 8 -8q0 -25 -58.5 -58.5t-84.5 -33.5q-78 0 -78 112zM231 678q79 53 175 172q4 0 4 -10l-11 -60q-31 -127 -94 -127 q-47 0 -74 25z" />
<glyph unicode="j" horiz-adv-x="323" d="M-756 -893q0 160 228.5 417t511.5 433l16 8q4 0 4 -7t-24 -32q-690 -575 -691 -829q0 -98 76 -98q113 0 256 163.5t259 391t196 474t80 406.5l-6 84v4q0 14 18 14.5t53 -16t41 -33.5q8 -33 8 -86q0 -205 -143 -540.5t-369.5 -610t-378.5 -274.5q-72 0 -103.5 30.5 t-31.5 100.5zM166 635q78 53 174 172q4 0 4 -6v-5q-2 -12 -2 -20q-25 -168 -100 -168q-47 0 -76 27z" />
<glyph unicode="k" horiz-adv-x="567" d="M31 -21.5q0 60.5 35 183.5l157 395q123 319 123 375.5t-39 56.5l-69 -14q-14 0 -15 12q0 31 79 31t118 -28.5t39 -67.5t-160 -402q-172 -377 -199 -457q8 18 142 193l-41 35q0 14 29.5 49t39 35t45.5 -27q94 106 195.5 189.5t144.5 83.5q20 0 21 -46q0 -109 -84 -202.5 t-193 -116.5q82 -133 82 -291q0 -61 -13 -124.5t-30.5 -63.5t-17.5 14l10 82q0 180 -166 356q-158 -223 -180 -280q6 -6 6 -12q0 -18 -24 -19q-35 0 -35 60.5zM340 328q8 -18 51 -18l1 -1q42 0 106 81t65 140q0 7 -3 7q-2 1 -106 -97t-114 -112z" />
<glyph unicode="l" horiz-adv-x="352" d="M41 84q0 109 65.5 345.5t166 443t180.5 206.5q45 0 90 -29.5t45 -64.5q0 -147 -434 -655q-35 -152 -35 -264.5t49 -112.5l33 10q10 0 10 -10q0 -33 -72 -33q-98 0 -98 164zM168 383q371 485 371 608q0 25 -15 25q-61 0 -178 -218t-178 -415z" />
<glyph unicode="m" horiz-adv-x="919" d="M39 -31q0 35 67.5 247t67.5 319q0 35 -28.5 37.5t-28.5 11.5q0 18 30 18q137 0 138 -113q0 -57 -47 -190l47 80q57 94 105 137t102 43h4q94 0 94 -127q0 -102 -76 -328l281 304q27 16 73.5 16t46.5 -18q-82 -224 -82 -321q0 -99 35 -99q6 16 15 45q6 -14 6 -43 q0 -53 -33 -54q-106 0 -106 185q0 88 28 229q-47 -47 -94 -117l-106 -149q-88 -125 -109 -125q-70 0 -70 25q0 6 23 96q72 266 72 362q0 43 -27 43q-76 0 -205 -223q-45 -82 -99 -204t-59 -122q-20 0 -42.5 10.5t-22.5 24.5z" />
<glyph unicode="n" horiz-adv-x="624" d="M39 -31q0 35 67.5 247t67.5 319q0 29 -14.5 34.5t-28.5 4.5t-14 10q0 18 30 18q137 0 138 -113q0 -43 -99 -333q90 141 174 243.5t113 102.5q2 -2 2 -7.5t-16 -25.5q-221 -268 -307 -459l-19 -53q-12 -23 -30.5 -23t-41 10.5t-22.5 24.5zM395 120.5q0 100.5 53.5 265.5 t102.5 165h10q72 0 72 -29q0 8 -10 -10q-57 -104 -102.5 -251.5t-45.5 -192.5q0 -125 45 -125q14 0 38 19.5t20 19.5q6 0 6 -17q0 -53 -61.5 -53t-94.5 54t-33 154.5z" />
<glyph unicode="o" d="M4 113q0 70 32 148.5t79 127.5q-23 37 -23 96.5t49 107.5t121 48q135 0 180 -139q96 -18 97 -45q-1 -31 -21 -31l-51 8q4 -41 4 -65q0 -170 -86 -300t-215 -130q-166 0 -166 174zM86 74.5q0 -111.5 83 -111.5t156.5 132t73.5 253q0 53 -18 86q-78 -12 -166 -96 q20 -14 32.5 -13t14.5 1q10 0 10 -11q0 -16 -27.5 -16t-49.5 14q-109 -127 -109 -238.5zM137 466q0 -40 6 -58q139 104 193 104h6q-26 72 -104 72q-43 0 -72 -39t-29 -79z" />
<glyph unicode="p" horiz-adv-x="694" d="M-51 -434q0 172 127 475q-20 39 -20.5 53.5t5.5 14.5l5 -3q6 -27 20 -43q186 436 186 468t-43 32l-69 -16q-12 0 -13 14q0 33 91 33q141 0 141 -96q0 -31 -60 -166q158 219 281 219q98 0 98 -113q0 -150 -146 -325.5t-284 -175.5q-70 0 -118 30q-131 -289 -132 -442 q0 -49 37 -49l64 22q4 0 4 -4q0 -14 -28.5 -27.5t-55.5 -13.5t-58.5 37t-31.5 76zM162 0v-2q27 -10 78 -10q119 0 240.5 160t121.5 301q0 53 -35 53q-68 0 -183.5 -135.5t-221.5 -366.5z" />
<glyph unicode="q" horiz-adv-x="565" d="M12 38q0 93 76 217t186.5 215t198.5 91q109 0 109 -90q0 -20 -13 -25l-4 3q-20 43 -85.5 43t-143.5 -79t-158 -214.5t-80 -188.5q0 -27 21 -26q57 0 196.5 179t179.5 221t57 42t49 -6t32 -12h-2q-23 0 -86.5 -96.5t-114.5 -219.5q66 -59 66 -207.5t-82 -312.5l-43 -90 q-35 -61 -53.5 -77.5t-52.5 -16.5t-77 32.5t-43 78.5t101.5 324.5t173.5 422.5q-186 -301 -322 -301q-86 0 -86 93zM242 -524q0 -29 12 -29q18 0 63 57q148 185 148 412q0 96 -49 145q-174 -455 -174 -585z" />
<glyph unicode="r" horiz-adv-x="532" d="M39 -31q0 35 67.5 247t67.5 319q0 35 -28.5 37.5t-28.5 11.5q0 18 30 18q137 0 138 -113q0 -33 -68 -241q111 180 246 248q33 74 97 74t65 -13q0 8 -23 -22q-78 -109 -84 -160q0 -55 39 -68q14 -4 14 -6q0 -16 -39.5 -16t-68.5 31.5t-29 71.5t10 69q-100 -80 -166.5 -164 t-91 -145.5t-37 -111.5t-20.5 -76t-26.5 -26t-41 10.5t-22.5 24.5z" />
<glyph unicode="s" horiz-adv-x="415" d="M-2 -55q235 49 235 117q0 15 -55 65q-106 94 -106 211q0 82 105.5 167t195.5 85q14 0 57 -43t43 -54.5t-10 -11.5q-45 10 -57 11q-92 0 -189.5 -68t-97.5 -137q0 -14 96 -124t96 -150t-57 -81t-115.5 -41t-99.5 17.5t-41 36.5z" />
<glyph unicode="t" horiz-adv-x="354" d="M10 -4q0 82 58 227q33 74 96 226q-70 29 -70 79q0 16 8 23q33 -14 95 -21q68 149 68 193q0 45 -17 45l-41 -10q-6 0 -6 6q0 16 24.5 25.5t36.5 9.5q90 0 90 -103q0 -61 -37 -155q8 -9 74 -9h4q63 0 99 16t43.5 15.5t7.5 -6.5t-8 -14q-96 -82 -236 -101q-12 0 -29 -6 q-186 -373 -186 -471q0 -33 25 -33l57 13l2 -2q0 -43 -68 -43q-90 0 -90 96z" />
<glyph unicode="u" horiz-adv-x="636" d="M12 43q0 86 90.5 283.5t90.5 205.5l-19 37q0 6 15.5 6t66.5 -20t51 -35q-20 -41 -111.5 -227.5t-91.5 -251t27 -64.5q33 0 94.5 74t120.5 172l172 279q29 49 66 49q74 0 73 -29q0 8 -10 -10q-57 -104 -103 -251.5t-46 -192.5q0 -125 45 -125q14 0 59 39q4 0 4 -17 q0 -53 -60.5 -53t-94 54t-33.5 135t33 216q-160 -260 -214.5 -327.5t-105.5 -67.5t-85 38t-34 83z" />
<glyph unicode="v" horiz-adv-x="464" d="M25 498q0 41 67 41q129 0 129 -228q0 -20 -14 -133q0 -8 8 -8q4 0 14 16q145 203 263 325t176 122q24 0 24 -23q0 -10 -6 -16q-119 -72 -263 -226.5t-218 -355.5q-25 -98 -51 -98q-61 0 -62 29q31 330 31 389q0 170 -51 172q-4 -2 -13.5 -18.5t-15.5 -16.5q-18 0 -18 29z " />
<glyph unicode="w" horiz-adv-x="927" d="M-2 20q0 129 256 441q29 35 44 35t15 -13l-4 -6q-49 -63 -130 -238.5t-81 -215t19 -39.5q31 0 179 188t179 256q6 6 62.5 6t56.5 -18v2q-6 0 -6 -185q0 -260 63 -260q55 0 112.5 128t57.5 241q0 145 -88 174q10 20 72 21q127 -1 127 -187q0 -150 -86 -276.5t-201 -126.5 q-80 0 -123 95t-43 251q0 55 8 88q-178 -283 -255.5 -370t-155.5 -87q-35 0 -56.5 29t-21.5 67z" />
<glyph unicode="x" horiz-adv-x="581" d="M-92 -195q0 35 227 295q29 33 51.5 59.5t36 41t10.5 14.5l-20 166q-14 63 -35.5 95t-36 37t-14.5 7q1 20 73 20q2 0 3 1q69 0 78 -21q12 -14 36 -244q37 41 179.5 176.5t148.5 135.5q37 0 37 -41q0 -14 -33 -39q-127 -100 -323 -287q35 -264 141 -264q14 0 68 23 q6 0 6 -7q0 -20 -59.5 -46.5t-92.5 -26.5q-55 0 -84 56t-59 206q-111 -113 -145.5 -154t-71.5 -92q-92 -129 -103 -129q-18 0 -18 18z" />
<glyph unicode="y" horiz-adv-x="598" d="M-375 -842q0 162 232 420q242 272 526 434q10 0 -21 -37q-692 -575 -692 -831q0 -98 78 -98q133 0 321.5 258t322.5 582.5t134 514.5q0 72 -24 99q-272 -285 -381 -480q-35 -86 -62 -86q-61 0 -61 35q-2 20 82 244l57 158q27 82 31 164v8q0 23 -5 26.5t-26.5 3.5 t-21.5 11q0 18 32 18q131 0 132 -98q0 -47 -123 -348q72 98 208 244.5t171 146.5q0 -18 -17 -33q92 -10 98 -41q9 -53 9 -88q0 -197 -136 -520q-152 -352 -362.5 -596t-366.5 -244q-135 0 -135 133z" />
<glyph unicode="z" horiz-adv-x="684" d="M18 -51q0 27 19 51l2 2q29 4 43 25q0 33 280.5 222t284.5 204q-27 35 -74 35h-1q-48 0 -197.5 -34t-174 -34t-24.5 42t25 64q12 -10 16 -10l320 31q59 0 100 -44t41 -120q0 -10 -119 -94l-344 -244q82 23 295 23q156 0 156 -144q0 -80 -41 -80q-6 0 -7 9q25 70 25 77 q0 72 -215 72t-403 -82q-7 0 -7 29z" />
<glyph unicode="{" horiz-adv-x="497" d="M12 344l19 27q113 8 159 47t64 133q12 96 28.5 157.5t53.5 118.5q68 106 266 107q12 0 19 -16l-21 -7q-150 0 -194 -120q-4 -14 -14.5 -66.5t-14.5 -72t-17.5 -64.5t-24.5 -65.5t-31.5 -54.5t-43.5 -50q-57 -45 -127 -64q141 -51 141 -139q0 -31 -25.5 -165t-25.5 -165 q0 -68 41 -90l105 -16l12 -15q-16 -8 -29 -8q-229 0 -229 135q0 31 28.5 165t28.5 165q0 123 -168 123z" />
<glyph unicode="|" horiz-adv-x="337" d="M80 -211q4 27 22 109q82 340 82 727q0 193 -28 270q-1 16 26 16q61 0 61.5 -135t-36.5 -460.5t-62.5 -424t-62.5 -104.5z" />
<glyph unicode="}" horiz-adv-x="655" d="M49 -217l19 8q150 0 194 119q6 25 19.5 91.5t27 110.5t24.5 65.5t31.5 54t43.5 51.5q57 47 127 65q-139 49 -140 139q0 29 25.5 163t25.5 165q0 70 -43 90l-102 17l-14 14q18 8 28 8q229 0 230 -135q0 -31 -26.5 -165t-26.5 -165q0 -121 163 -123l-16 -24 q-117 -14 -162 -51t-63 -129q-23 -201 -90.5 -292t-257.5 -91q-8 0 -17 14z" />
<glyph unicode="~" horiz-adv-x="466" d="M74 563q0 6 15 23.5t45 35t61 17.5l147 -33q37 0 64 35q8 0 8 -6t-11.5 -24.5t-37 -36t-54.5 -17.5l-151 41q-20 0 -51 -19.5t-33 -19.5z" />
<glyph horiz-adv-x="0" />
<glyph unicode="&#xa1;" horiz-adv-x="456" d="M-86 -381q174 264 214 346t63.5 128t50.5 95q57 111 69.5 111t12.5 -23q0 -72 -128 -380t-173 -308q-31 0 -70 8.5t-39 22.5zM274 408q0 -6 140 129q18 -1 18 -21q0 -53 -25.5 -94t-64.5 -41q-68 0 -68 27z" />
<glyph unicode="&#xa2;" horiz-adv-x="634" d="M76 -27.5q0 70.5 135 340.5q-96 31 -96 154q0 76 55 188.5t143 201.5t164 89q18 0 27 -2q29 43 57.5 93t46 76t51 53.5t56.5 27.5q41 0 41 -27q0 -8 -8 -8q-6 4 -19 4q-74 0 -170 -245h2q45 -31 45 -66q0 -96 -65 -96q-18 0 -21 10q25 55 25 91t-17 36q-29 0 -82 -45 q-100 -84 -173.5 -207t-73.5 -207t63 -84q68 0 162 76q57 53 134 135t79 82q12 0 12 -7t-4 -20q-217 -313 -356 -313h-4q-172 -293 -172 -352q0 -23 10 -31t10 -13t-16 -5q-41 0 -41 70.5z" />
<glyph unicode="&#xa3;" horiz-adv-x="1038" d="M23 72q0 43 49 43q76 0 323 -127q80 111 152 319h-211q-16 0 -17 8q0 27 29 27h213q66 195 159 332t195 137q43 0 71 -36t28 -87q0 -117 -125 -178q-12 -4 -16.5 -4t-4.5 6l47 51q63 80 63.5 137.5t-40.5 57.5q-63 0 -129 -85t-166 -331h258q8 0 8 -10q0 -25 -32 -25 h-248q-82 -188 -107.5 -238.5t-70.5 -91.5q53 -31 155.5 -58.5t173.5 -27.5q213 0 213 109q0 16 -45 72q0 6 13.5 6t36 -33.5t22.5 -56.5q0 -72 -50 -119t-124 -47q-152 0 -420 137q-90 -55 -182 -55t-156.5 49t-64.5 119zM68 49q0 -41 52 -80t114.5 -39t119.5 39 q-32 27 -132.5 64t-127 37t-26.5 -21z" />
<glyph unicode="&#xa4;" horiz-adv-x="772" d="M90 565q0 37 16 49l95 68q-16 33 -16.5 80t40.5 104l-57 56q-4 4 -4 18t10 44t14 30h2l97 -94q53 35 121.5 34.5t119.5 -41.5l140 101q4 0 4 -41t-17 -51l-88 -64q16 -33 17 -61q0 -66 -47 -119l67 -64q2 -2 2 -12t-4 -29q-10 -51 -16 -51l-109 105q-55 -33 -117.5 -33 t-113.5 37l-152 -109h-2q-2 6 -2 43zM254 764q0 -55 32.5 -89t84 -34t93.5 40t46 95v15q0 49 -32 82.5t-85 33.5t-96 -44t-43 -99z" />
<glyph unicode="&#xa5;" horiz-adv-x="1026" d="M127 768q0 12 22.5 43t50 66.5t74.5 80.5q94 96 190.5 96.5t138.5 -41.5t42 -145.5t-70 -304.5l-24 -78h10q113 164 291 342q236 240 405 240q47 0 77 -18.5t30 -38t-4 -19.5l-17 27q-20 27 -55 26q-94 0 -314 -194.5t-337 -362.5h70q115 0 145 2v-4q0 -31 -258 -67 l-29 -45q-23 -55 -28 -74l118 2q117 0 148 6q2 -4 2 -9t-41 -19q-104 -41 -254 -50q-51 -147 -51 -215.5t24 -68.5q12 0 25.5 9t24 15t19.5 13.5t15 13.5t15 12q8 0 8 -8q0 -25 -58.5 -58.5t-85.5 -33.5q-78 0 -77 112q0 88 32 207q-182 4 -182 35q0 37 39 37h166l41 115 q-193 2 -193 35q0 37 37 36h180q88 299 88.5 417t-102.5 118q-55 0 -135 -65.5t-139.5 -132t-66.5 -66.5t-7 12z" />
<glyph unicode="&#xa6;" horiz-adv-x="0" />
<glyph unicode="&#xa7;" horiz-adv-x="688" d="M-90 -174l4 12q86 -41 189.5 -41t203 39t99.5 94q0 37 -91 123q-166 170 -210 236.5t-44 154.5q0 133 150 230q35 195 420 291q193 43 217 43t47 -7l51 -53q31 -33 35 -61q0 -41 -107.5 -100.5t-134.5 -59.5v10l105 72q72 45 71 80q0 18 -51 18h-20q-125 0 -318 -73 q-270 -102 -270 -250q0 -72 176 -260.5t176 -280.5q0 -66 -40 -118t-103 -66q0 -66 -67.5 -111t-157.5 -45h-54q-195 0 -276 123zM113 409.5q0 -79.5 158.5 -250.5t185.5 -251q6 6 18 16t19.5 17.5t17.5 20.5t24.5 45t14.5 56.5t-4 40t-9.5 27.5t-16.5 28.5t-17 26 t-22.5 26.5t-23.5 25.5t-57 57.5q-160 162 -184 274q-104 -80 -104 -159.5z" />
<glyph unicode="&#xa8;" horiz-adv-x="403" d="M51 523.5q0 17.5 45 50t68 32.5l6 -2v2v-2q-6 -10 -20 -26l-27 -62q-21 -41 -41 -41q-10 0 -20.5 15.5t-10.5 33zM238 523.5q0 17.5 45 50t69 32.5l4 -2v2v-2q-6 -10 -20 -26l-25 -62q-14 -41 -41 -41q-12 0 -22 15.5t-10 33z" />
<glyph unicode="&#xa9;" horiz-adv-x="983" d="M39 229q0 113 96 237t236.5 205t257 81t204 -73t87.5 -173q0 -190 -199 -349t-420 -159q-262 0 -262 231zM119 229q0 -201 213 -200q188 0 347 144.5t159 322.5q0 98 -60.5 161.5t-159.5 63.5q-170 0 -334.5 -162t-164.5 -330zM201 221q0 133 151.5 275.5t298.5 142.5 q76 0 76 -61q0 -45 -29 -50l-8 7q8 33 8 36q0 55 -53 56q-109 0 -234.5 -139.5t-125.5 -270.5q0 -59 63 -59q88 0 289 118l6 -6q0 -45 -116.5 -96t-194.5 -51q-131 0 -131 98z" />
<glyph unicode="&#xaa;" horiz-adv-x="577" d="M12 967q0 121 156 317.5t268 196.5h21q76 0 129 -29t53 -78q0 -23 -18 -22q-6 0 -7 4q-35 78 -100 78q-115 0 -265.5 -191.5t-150.5 -294.5q0 -37 21 -37q92 0 387 414q4 4 13 4t42 -19.5t33 -31.5q0 -2 -29 -53q-68 -143 -67.5 -253t53.5 -110l20 4l4 -2q0 -16 -50 -16 t-81.5 44t-31.5 122t28 176q0 -4 -55 -86q-168 -258 -264 -258q-41 0 -75 38t-34 83z" />
<glyph unicode="&#xab;" horiz-adv-x="708" d="M131 340q0 23 96.5 155t114.5 132q10 -1 10 -11q0 -27 -151 -235q150 -186 149.5 -205.5t-12.5 -19.5h-2l-14 6q-37 55 -187 168q-4 4 -4 10zM389 340q0 23 96.5 155t114.5 132q12 -1 12 -11q0 -23 -151 -235q147 -188 147 -206.5t-12 -18.5h-2l-12 6q-41 55 -187 168 q-6 6 -6 10z" />
<glyph unicode="&#xac;" horiz-adv-x="1564" d="M66 497.5q0 20.5 18 44t45 27.5q317 47 657 47q717 0 717 -49q-74 -80 -140.5 -194.5t-66.5 -167.5q0 -23 28 -33t28 -12q0 -16 -68 -17q-92 8 -92 80q0 111 127 289q-354 31 -655 31q-477 0 -551 -54q-23 -12 -31 -12q-16 0 -16 20.5z" />
<glyph unicode="&#xad;" horiz-adv-x="458" d="M29 307q0 37 39 37h96l98 2h64q53 0 114 4v-6q0 -27 -129 -47q-178 -27 -190 -27q-92 0 -92 37z" />
<glyph unicode="&#xae;" horiz-adv-x="983" d="M63 229q0 168 168 330q-12 -4 -62 -33.5t-63.5 -29.5t-13.5 16q0 61 209 104q176 135 332 136q110 0 187 -70t77 -175.5t-77 -220t-202 -198.5q45 -39 68 -39t29 27l8 45q10 -14 10 -23q0 -70 -67 -69q-29 0 -76 41q-137 -82 -251 -82t-195 68.5t-81 172.5zM119 229 q0 -90 69.5 -149.5t168 -59.5t208.5 70q-106 102 -213 256q-88 -147 -88 -215q0 -18 12 -27l-2 -4q-25 0 -24.5 77t76.5 208q-18 27 -19 33q0 20 29 20q8 0 16 -12q35 53 96.5 114.5t86 61.5t24.5 -20q-106 -90 -180 -197l31 -41q20 -4 34 -4q98 0 220 63.5t122 126.5 q0 90 -225 91q-109 0 -242 -31q-201 -172 -200 -361zM377 631q63 10 169.5 10t185.5 -33t79 -88q0 -92 -121 -144t-266 -52q104 -141 172 -215q106 73 174 181.5t68 206t-60.5 161t-165 63.5t-235.5 -90z" />
<glyph unicode="&#xaf;" horiz-adv-x="524" d="M41 858q0 14 18 29q49 39 132 39t184.5 -11.5t101.5 -27.5q0 -10 -13 -13.5t-65.5 -5.5t-95.5 -6t-79 -7t-61.5 -5t-43 -3t-48 -2t-30.5 13z" />
<glyph unicode="&#xb0;" horiz-adv-x="436" d="M100 571.5q0 53.5 39 92t93.5 38.5t94.5 -38.5t40 -92t-40 -93.5t-94.5 -40t-93.5 40t-39 93.5zM133 571q0 -41 30 -69.5t69.5 -28.5t69.5 28.5t30 69.5t-30 70t-69.5 29t-69.5 -29t-30 -70z" />
<glyph unicode="&#xb1;" horiz-adv-x="675" d="M94 416l6 8q66 8 176 8h62l-10 211q0 23 34 29l9 -8q6 -51 6 -175v-57q10 -2 78 -4q170 -6 170 -16v-6l-17 -11q-119 0 -231 -2q0 -236 -25 -235q-6 -6 -7 14.5t-3 44.5q-4 49 -4 170v4l-215 -6q-25 0 -29 31zM174 82h2q27 12 162 12t156 -22q0 -6 -120 -16.5t-167 -10.5 q-27 0 -33 37z" />
<glyph unicode="&#xb2;" horiz-adv-x="753" d="M39 12q569 326 758 666q14 23 14 39q0 31 -53 31q-88 0 -270.5 -74t-182.5 -131l14 -27q0 -8 -12 -8t-40.5 36t-28.5 56q0 68 179 133.5t320 65.5q164 0 164 -123q0 -90 -189.5 -275.5t-484.5 -341.5q125 25 252 25q246 0 246 -104q0 -61 -25 -62q-4 0 -2 10.5t-1 18.5 t-34.5 18t-130 10t-221.5 -12q-195 -23 -235 -24q-23 0 -37 73z" />
<glyph unicode="&#xb3;" horiz-adv-x="843" d="M31 134.5q0 111.5 43 111.5q10 0 10 -15q0 -4 -13.5 -45t-13.5 -55q0 -121 181 -121q156 0 303 91.5t147 182.5t-211 91l-137 -17q-20 0 -35 37l-26 56q4 0 33.5 3t52.5 5q70 6 254 86t184 132t-209 52q-121 0 -193.5 -26.5t-72.5 -71.5l4 -21q0 -12 -8.5 -12t-21.5 37 t-13 53q0 51 76.5 85t201.5 34t216 -40t91 -106.5t-57 -114.5t-199 -120q135 -92 136 -195q0 -131 -157 -238.5t-323 -107.5q-113 0 -178 69t-65 180.5z" />
<glyph unicode="&#xb4;" horiz-adv-x="342" d="M59 343q0 11 121 103.5t131 92.5q20 0 20.5 -22.5t-12 -35t-127 -81t-124 -68.5t-9.5 11z" />
<glyph unicode="&#xb5;" horiz-adv-x="636" d="M-137 -434q0 129 62.5 307t131 345t102.5 237.5t34 76.5l-19 37q0 6 15.5 6t66.5 -20t51 -35q-20 -41 -111.5 -227.5t-91.5 -251t27 -64.5q33 0 94.5 74t120.5 172l172 279q29 49 66 49q74 0 73 -29q0 8 -10 -10q-57 -104 -103 -251.5t-46 -192.5q0 -125 45 -125 q14 0 59 39q4 0 4 -17q0 -53 -60.5 -53t-94 54t-33.5 135t33 216q-160 -260 -214.5 -327.5t-115.5 -67.5q-33 0 -66 29q-125 -274 -125 -426q0 -49 37 -49q10 0 35 11t29 11t4 -4q0 -14 -29 -27.5t-55.5 -13.5t-57 37t-30.5 76z" />
<glyph unicode="&#xb6;" horiz-adv-x="845" d="M-82 -313q8 8 16 8q111 0 201 142.5t236 547.5q-238 18 -238 174q0 133 150 232q121 80 278 92q55 4 125 4t98 -6q63 63 117.5 63t63.5 -20q-68 -10 -131.5 -82t-137.5 -242q-199 -500 -270.5 -622.5t-110.5 -124.5q-10 0 -10 6q6 12 21 26q84 82 186 379 q145 461 258 594h-16q-86 0 -174 -149.5t-228 -530.5q-70 -199 -192.5 -353.5t-214.5 -154.5q-25 0 -27 17z" />
<glyph unicode="&#xb7;" horiz-adv-x="348" d="M135 371q0 43 60 43q24 0 43.5 -15.5t19.5 -35t-19.5 -34t-37.5 -14.5q-66 0 -66 56z" />
<glyph unicode="&#xb8;" horiz-adv-x="346" d="M25 -469q0 10 45 14q131 12 131 105q0 10 -39 77.5t-39 86.5q0 55 29.5 94t76.5 39q18 0 19 -10q-70 -8 -70 -97q0 -6 45 -76.5t45 -97.5q0 -68 -69.5 -110.5t-161.5 -42.5q-12 0 -12 18z" />
<glyph unicode="&#xb9;" horiz-adv-x="368" d="M39 754q0 174 178 542q-47 -49 -115 -102q-2 2 -2 5t2 7l109 150q88 121 110.5 121t62.5 -16.5t40 -30.5q0 -2 -4 -9q-98 -133 -209 -391t-111 -362l15 -72q0 -8 -9 -8q-29 0 -48 50t-19 116z" />
<glyph unicode="&#xba;" d="M4 1008q0 70 32 148.5t79 127.5q-23 37 -23 96.5t49 107.5t121 48q135 0 180 -141q96 -14 96.5 -44t-20.5 -30q-6 0 -26.5 3t-24.5 3q4 -37 4 -65q0 -170 -86 -300.5t-215 -130.5q-166 0 -166 177zM86 968.5q0 -112.5 83 -112.5t156.5 132t73.5 253q0 53 -18 86 q-78 -8 -166 -96q23 -12 34 -11t13 1q10 0 10 -13.5t-26.5 -13.5t-50.5 12q-109 -125 -109 -237.5zM137 1362q0 -39 6 -62q141 106 193 107h6q-28 72 -104 72q-43 0 -72 -39t-29 -78z" />
<glyph unicode="&#xbb;" horiz-adv-x="708" d="M131 616q0 10 12.5 10.5t110.5 -129.5t98 -157q0 -6 -4 -10q-145 -113 -186 -168l-12 -6h-5q-12 0 -12 17t150 208q-152 212 -152 235zM389 616q0 10 12.5 10.5t111.5 -129.5t99 -157q0 -4 -6 -10q-145 -113 -186 -168l-12 -6h-5q-10 0 -10 18.5t148 206.5 q-152 212 -152 235z" />
<glyph unicode="&#xbc;" horiz-adv-x="1447" d="M31 -153.5q0 61.5 21.5 101.5t156.5 238q584 836 649 836q92 0 92 -39q0 -12 -12 -29l-219 -254q-635 -735 -635 -852q0 -23 20 -38q0 -25 -36.5 -25t-36.5 61.5zM31 565q0 133 143 436q-37 -41 -90 -83q-2 2 -2 6l86 123q70 96 89 96t50 -11.5t31 -23.5v-8 q-80 -106 -168 -313t-88 -289l10 -58q0 -6 -6 -6q-23 0 -39 40t-16 91zM682 221q0 57 186 205l250 182h-10q-35 0 -35 6q0 12 52.5 12.5t52.5 -38.5q0 -10 -28 -34t-50.5 -42t-61.5 -49t-73.5 -58.5t-93 -72.5t-105.5 -82q170 37 299 37h41l72 159q49 115 49 150q0 6 -27 29 q4 12 35 12t60.5 -18.5t29.5 -48t-51 -138.5l-74 -156q29 -6 58.5 -28.5t29.5 -43t-15.5 -42t-26.5 -21.5t-11 11l22 61q0 16 -57 16h-12q-18 -37 -55 -160.5t-37 -145t20 -46.5q0 -6 -14 -6q-59 0 -60 143q0 80 39 209q-8 2 -33.5 2t-149.5 -21.5t-179 -43.5 q-12 0 -24.5 22.5t-12.5 38.5z" />
<glyph unicode="&#xbd;" horiz-adv-x="1398" d="M31 -153.5q0 61.5 21.5 101.5t156.5 238q584 836 649 836q92 0 92 -39q0 -12 -12 -29l-219 -254q-635 -735 -635 -852q0 -23 20 -38q0 -25 -36.5 -25t-36.5 61.5zM31 565q0 133 143 436q-37 -41 -90 -83q-2 2 -2 6l86 123q70 96 89 96t50 -11.5t31 -23.5v-8 q-80 -106 -168 -313t-88 -289l10 -58q0 -6 -6 -6q-23 0 -39 40t-16 91zM633 0q455 254 608 532q10 20 10 31q0 25 -55 25t-202.5 -58.5t-147.5 -105.5q0 -6 6 -12t6 -11.5t-10 -5.5t-33.5 29t-23.5 45q0 53 144 106.5t266 53.5t122 -99q0 -72 -151.5 -221t-387.5 -272 q113 20 201 20q199 0 199 -84q0 -51 -21 -51q-6 0 -4 9.5t0 16.5t-26.5 14t-89 7t-379.5 -28q-16 0 -31 59z" />
<glyph unicode="&#xbe;" horiz-adv-x="1648" d="M25 604q0 90 34 90q6 0 7 -10l-21 -82q0 -96 137 -96t253 73.5t116 145.5t-170 72l-109 -13q-18 0 -28 31l-21 43q90 0 255 69.5t165 112.5q0 39 -168 39q-96 0 -154.5 -21.5t-58.5 -56.5q2 -14 2 -20t-6 -6t-16.5 30.5t-10.5 41.5q0 41 60.5 67.5t162 26.5t173 -31 t71.5 -85t-45 -92t-157 -93q106 -76 106 -156q0 -104 -126 -191t-257 -87q-90 0 -142 54t-52 144zM279 -153.5q0 61.5 21.5 101.5t156.5 238q584 836 649 836q92 0 92 -39q0 -12 -12 -29l-219 -254q-293 -338 -464 -566.5t-171 -285.5q0 -23 20 -38q0 -25 -36.5 -25 t-36.5 61.5zM930 221q0 57 186 205l250 182h-10q-35 0 -35 6q0 12 51 12.5t51 -38.5q0 -16 -53 -58.5t-75.5 -59.5t-56.5 -45t-64 -52q-96 -74 -160 -123q170 37 299 37h41l69 159q52 115 52 150q0 6 -27 29q2 12 33.5 12t61.5 -18.5t30 -48t-51 -138.5l-74 -156 q29 -6 58.5 -28.5t29.5 -43t-15.5 -42t-26.5 -21.5t-11 11l22 61q0 16 -57 16h-12q-18 -37 -55.5 -160.5t-37.5 -145t21 -46.5q0 -6 -14 -6q-59 0 -60 143q0 76 37 209q-6 2 -31.5 2t-150.5 -21.5t-178 -43.5q-12 0 -24.5 22.5t-12.5 38.5z" />
<glyph unicode="&#xbf;" horiz-adv-x="618" d="M-25 -239.5q0 63.5 85 122t187.5 99.5t187.5 93t85 88t-68.5 77t-68.5 43q0 14 47 14t91 -52t44 -112.5t-79.5 -123t-176 -100.5t-176.5 -85t-80 -86q0 -55 233.5 -55t233.5 88l-8 34q0 8 8 8.5t28.5 -42.5t20.5 -58q0 -49 -70.5 -78.5t-197.5 -29.5t-226.5 46 t-99.5 109.5zM463 406q0 -12 139 131q19 -1 19 -21q0 -55 -26 -95t-65 -40q-68 0 -67 25z" />
<glyph unicode="&#xc0;" horiz-adv-x="1187" d="M35 -4q8 2 10 2l59 -10q152 0 455 237v2l-110 -4q-49 0 -85 28t-36 68l4 5q0 2 2 2l6 -4q20 -21 170 -21l72 2h67q92 74 223.5 205t184.5 209l63 92q8 0 8 -23q0 -92 -145 -251l-213 -226l244 25q66 141 143.5 287.5t97 184.5l39 76t44 70.5t46 32.5t53 -13.5t31.5 -27.5 q-27 -39 -58.5 -92t-68.5 -115q-362 -606 -362 -850q0 -29 16 -71q20 -49 13 -49q-41 0 -67 50t-26 129t84 337q-29 0 -157.5 -20.5t-159.5 -29.5q-336 -291 -524 -290q-80 0 -123 53zM1135 1248.5q0 25.5 20 25.5q10 0 138 -95.5t128 -109.5t-15 -14t-124 69 q-113 66 -130 82.5t-17 42z" />
<glyph unicode="&#xc1;" horiz-adv-x="1187" d="M35 -4q8 2 10 2l59 -10q152 0 455 237v2l-110 -4q-49 0 -85 28t-36 68l4 5q0 2 2 2l6 -4q20 -21 170 -21l72 2h67q92 74 223.5 205t184.5 209l63 92q8 0 8 -23q0 -92 -145 -251l-213 -226l244 25q66 141 143.5 287.5t97 184.5l39 76t44 70.5t46 32.5t53 -13.5t31.5 -27.5 q-27 -39 -58.5 -92t-68.5 -115q-362 -606 -362 -850q0 -29 16 -71q20 -49 13 -49q-41 0 -67 50t-26 129t84 337q-29 0 -157.5 -20.5t-159.5 -29.5q-336 -291 -524 -290q-80 0 -123 53zM1303 1064q0 11 119.5 103.5t135 92.5t15.5 -24t-13.5 -36t-126 -79.5t-121.5 -67.5 t-9 11z" />
<glyph unicode="&#xc2;" horiz-adv-x="1187" d="M35 -4q8 2 10 2l59 -10q152 0 455 237v2l-110 -4q-49 0 -85 28t-36 68l4 5q0 2 2 2l6 -4q20 -21 170 -21l72 2h67q92 74 223.5 205t184.5 209l63 92q8 0 8 -23q0 -92 -145 -251l-213 -226l244 25q66 141 143.5 287.5t97 184.5l39 76t44 70.5t46 32.5t53 -13.5t31.5 -27.5 q-27 -39 -58.5 -92t-68.5 -115q-362 -606 -362 -850q0 -29 16 -71q20 -49 13 -49q-41 0 -67 50t-26 129t84 337q-29 0 -157.5 -20.5t-159.5 -29.5q-336 -291 -524 -290q-80 0 -123 53zM1182 1084.5q0 15.5 96 93t113 82.5l10 -5q55 -63 192 -165l9 -17l-7 -10 q-29 2 -113.5 54t-111.5 81q-160 -129 -176 -129q-12 0 -12 15.5z" />
<glyph unicode="&#xc3;" horiz-adv-x="1187" d="M35 -4q8 2 10 2l59 -10q152 0 455 237v2l-110 -4q-49 0 -85 28t-36 68l4 5q0 2 2 2l6 -4q20 -21 170 -21l72 2h67q92 74 223.5 205t184.5 209l63 92q8 0 8 -23q0 -92 -145 -251l-213 -226l244 25q66 141 143.5 287.5t97 184.5l39 76t44 70.5t46 32.5t53 -13.5t31.5 -27.5 q-27 -39 -58.5 -92t-68.5 -115q-362 -606 -362 -850q0 -29 16 -71q20 -49 13 -49q-41 0 -67 50t-26 129t84 337q-29 0 -157.5 -20.5t-159.5 -29.5q-336 -291 -524 -290q-80 0 -123 53zM1282 1147q0 8 15.5 26.5t45 36t62.5 17.5l147 -33q35 0 66 33q8 0 8 -7.5t-11 -24.5 t-37 -34.5t-49.5 -17.5t-84 21.5t-74.5 21.5t-34.5 -11.5t-35 -21.5t-16.5 -10z" />
<glyph unicode="&#xc4;" horiz-adv-x="1187" d="M35 -4q8 2 10 2l59 -10q152 0 455 237v2l-110 -4q-49 0 -85 28t-36 68l4 5q0 2 2 2l6 -4q20 -21 170 -21l72 2h67q92 74 223.5 205t184.5 209l63 92q8 0 8 -23q0 -92 -145 -251l-213 -226l244 25q66 141 143.5 287.5t97 184.5l39 76t44 70.5t46 32.5t53 -13.5t31.5 -27.5 q-27 -39 -58.5 -92t-68.5 -115q-362 -606 -362 -850q0 -29 16 -71q20 -49 13 -49q-41 0 -67 50t-26 129t84 337q-29 0 -157.5 -20.5t-159.5 -29.5q-336 -291 -524 -290q-80 0 -123 53zM1266 1147.5q0 17.5 46 50.5t68 33l6 -2v2v-2q-6 -10 -20 -27l-27 -61q-20 -41 -43 -41 q-8 0 -19 15t-11 32.5zM1452 1147.5q0 17.5 46 50.5t71 33l4 -2v2v-2q-6 -10 -21 -27l-24 -61q-18 -41 -43 -41q-10 0 -21.5 15t-11.5 32.5z" />
<glyph unicode="&#xc5;" horiz-adv-x="1187" d="M35 -4q8 2 10 2l59 -10q152 0 455 237v2l-110 -4q-49 0 -85 28t-36 68l4 5q0 2 2 2l6 -4q20 -21 170 -21l72 2h67q92 74 223.5 205t184.5 209l63 92q8 0 8 -23q0 -92 -145 -251l-213 -226l244 25q164 346 327 622q-23 -6 -38 -6q-63 0 -64 62q0 51 43 108.5t94 57.5 q66 0 66 -74t-56 -119q82 -12 82 -41q-27 -39 -58.5 -92t-68.5 -115q-362 -606 -362 -850q0 -29 16 -71q20 -49 13 -49q-41 0 -67 50t-26 129t84 337q-29 0 -157.5 -20.5t-159.5 -29.5q-336 -291 -524 -290q-80 0 -123 53zM1294 1009.5q0 -28.5 30 -28.5t56.5 36t26.5 83 t-35 47q-16 0 -45 -19l16 -6q-49 -84 -49 -112.5z" />
<glyph unicode="&#xc6;" horiz-adv-x="1914" d="M35 -4q8 2 10 2l59 -10q152 0 455 237v2l-110 -4q-49 0 -85 28t-36 68l4 5q0 2 2 2l6 -4q20 -20 170 -21l72 2h67q92 74 223.5 205t184.5 209l63 92q8 0 8 -23q0 -92 -145 -251l-213 -226q66 4 207 19q-8 27 -8 37t8 10l53 -10q111 231 158 317t66.5 124l39 76t44 70.5 t46 32.5t53 -13.5t31.5 -27.5q-25 -31 -94 -151q231 172 463 172q76 0 105 -17q2 4 5 16.5t5 18.5q18 43 35 49q6 2 14 2q72 0 72 -26q-4 0 -46 -57.5t-83 -129t-41 -102.5l6 -31q0 -4 -4 -4q-31 0 -31 73.5t47 153.5q-25 4 -49 4q-219 0 -422 -156.5t-315 -400.5 q449 0 637 48q12 0 12 -11q0 -39 -254 -76.5t-424 -42.5q-8 -53 -8 -73q0 -135 92 -221t237 -86q283 0 508 237q25 29 36 29t11 -14.5t-16 -36.5q-131 -129 -294 -198t-315.5 -69t-263 99.5t-110.5 238.5q0 47 16 101q-29 0 -157.5 -20.5t-159.5 -29.5q-336 -291 -524 -290 q-80 0 -123 53z" />
<glyph unicode="&#xc7;" horiz-adv-x="1140" d="M49 173q0 130 74 269.5t192.5 250t279.5 183t304 72.5t229 -51q47 111 91 111q70 0 69 -27q-98 -127 -121 -158q-120 -163 -120 -239l8 -31q0 -4 -4 -4q-25 0 -25 53q0 90 82 258q-63 57 -178 58q-174 0 -358.5 -112t-303 -281t-118.5 -314t92 -230t235 -85 q281 0 506 237q29 29 41 29q8 0 8 -15.5t-18 -35.5q-111 -125 -285 -196t-323 -71q-25 0 -37 2q-37 -25 -37 -88q0 -2 44 -72.5t44 -99.5q0 -66 -66.5 -109.5t-163.5 -43.5q-12 0 -12 16q0 6 12 14l115 15q51 14 51 90q0 10 -40 77.5t-40 88.5q0 80 50 116 q-129 20 -203 106.5t-74 216.5z" />
<glyph unicode="&#xc8;" horiz-adv-x="1003" d="M18.5 364.5q0.5 10.5 8.5 10.5l59 -13q84 238 326.5 420.5t472.5 182.5q80 0 108 -17q20 74 45 84q6 2 15 2q72 0 71 -26q-4 0 -46 -57.5t-84 -129t-42 -102.5l9 -31q0 -4 -5 -4q-31 0 -30.5 73.5t47.5 153.5q-29 4 -51 4q-213 0 -438.5 -171t-303.5 -386q252 0 385 7 q123 8 256 41q14 0 15 -11q0 -39 -254 -76.5t-426 -42.5q-6 -39 -6 -73q0 -137 92 -222t235 -85q287 0 506 237q29 29 41 29q8 0 8 -15.5t-18 -35.5q-111 -125 -285 -196t-329.5 -71t-253 89.5t-97.5 242.5q0 45 10 107q-10 0 -25.5 35.5t-15 46zM803 1307v14q0 27 15.5 27 t143.5 -97.5t128 -110t-15 -12.5q-41 14 -114.5 59.5t-89 54.5t-25.5 17.5t-18.5 13.5t-12.5 10t-8 7q-4 5 -4 17z" />
<glyph unicode="&#xc9;" horiz-adv-x="1003" d="M18.5 364.5q0.5 10.5 8.5 10.5l59 -13q84 238 326.5 420.5t472.5 182.5q80 0 108 -17q20 74 45 84q6 2 15 2q72 0 71 -26q-4 0 -46 -57.5t-84 -129t-42 -102.5l9 -31q0 -4 -5 -4q-31 0 -30.5 73.5t47.5 153.5q-29 4 -51 4q-213 0 -438.5 -171t-303.5 -386q252 0 385 7 q123 8 256 41q14 0 15 -11q0 -39 -254 -76.5t-426 -42.5q-6 -39 -6 -73q0 -137 92 -222t235 -85q287 0 506 237q29 29 41 29q8 0 8 -15.5t-18 -35.5q-111 -125 -285 -196t-329.5 -71t-253 89.5t-97.5 242.5q0 45 10 107q-10 0 -25.5 35.5t-15 46zM932 1121.5 q0 11.5 119.5 103.5t135 92t15.5 -23.5t-11 -35t-126 -80t-124 -68.5t-9 11.5z" />
<glyph unicode="&#xca;" horiz-adv-x="1003" d="M18.5 364.5q0.5 10.5 8.5 10.5l59 -13q84 238 326.5 420.5t472.5 182.5q80 0 108 -17q20 74 45 84q6 2 15 2q72 0 71 -26q-4 0 -46 -57.5t-84 -129t-42 -102.5l9 -31q0 -4 -5 -4q-31 0 -30.5 73.5t47.5 153.5q-29 4 -51 4q-213 0 -438.5 -171t-303.5 -386q252 0 385 7 q123 8 256 41q14 0 15 -11q0 -39 -254 -76.5t-426 -42.5q-6 -39 -6 -73q0 -137 92 -222t235 -85q287 0 506 237q29 29 41 29q8 0 8 -15.5t-18 -35.5q-111 -125 -285 -196t-329.5 -71t-253 89.5t-97.5 242.5q0 45 10 107q-10 0 -25.5 35.5t-15 46zM788 1130.5q0 16.5 97.5 93 t113.5 81.5l9 -5q55 -61 192 -165l10 -15l-8 -12q-29 2 -113.5 55.5t-111.5 81.5q-160 -131 -174.5 -131t-14.5 16.5z" />
<glyph unicode="&#xcb;" horiz-adv-x="1003" d="M18.5 364.5q0.5 10.5 8.5 10.5l59 -13q84 238 326.5 420.5t472.5 182.5q80 0 108 -17q20 74 45 84q6 2 15 2q72 0 71 -26q-4 0 -46 -57.5t-84 -129t-42 -102.5l9 -31q0 -4 -5 -4q-31 0 -30.5 73.5t47.5 153.5q-29 4 -51 4q-213 0 -438.5 -171t-303.5 -386q252 0 385 7 q123 8 256 41q14 0 15 -11q0 -39 -254 -76.5t-426 -42.5q-6 -39 -6 -73q0 -137 92 -222t235 -85q287 0 506 237q29 29 41 29q8 0 8 -15.5t-18 -35.5q-111 -125 -285 -196t-329.5 -71t-253 89.5t-97.5 242.5q0 45 10 107q-10 0 -25.5 35.5t-15 46zM834 1159.5q0 18.5 45 50 t67 31.5l6 -2v2v-2q-8 -12 -20 -25l-27 -61q-21 -43 -41 -43q-10 0 -20 15.5t-10 34zM1020 1159.5q0 18.5 45 50t70 31.5l4 -2v2v-2q-8 -12 -21 -25l-24 -61q-16 -43 -41 -43q-12 0 -22.5 15.5t-10.5 34z" />
<glyph unicode="&#xcc;" horiz-adv-x="718" d="M-31 -33q1 10 11 10l120 -10h117v17q0 211 500 888q-389 -33 -463 -147q-2 -6 -8 -29q-8 -43 -29 -43q-6 0 -6 9q0 238 543 260q27 63 67 63q27 0 62 -12t35 -27q0 -6 -15 -22q37 -2 37 -6q0 -8 -13.5 -22.5t-23.5 -14.5h-37q-266 -297 -428 -551t-168 -361q215 4 328 33 q8 2 19.5 2t11.5 -8q0 -14 -51 -23l-299 -57q16 -23 59 -22l78 14q10 0 10 -4q-6 -14 -49 -28.5t-66 -14.5q-55 0 -80 49q-152 -27 -196.5 -27t-55 17.5t-10.5 66.5zM709 1253v13q0 27 15 26.5t143 -97.5t128 -109.5t-14 -12.5q-39 12 -113.5 58.5t-90 55.5t-26 17 t-18.5 13.5t-12 10.5t-8 7q-4 4 -4 18z" />
<glyph unicode="&#xcd;" horiz-adv-x="718" d="M-31 -33q1 10 11 10l120 -10h117v17q0 211 500 888q-389 -33 -463 -147q-2 -6 -8 -29q-8 -43 -29 -43q-6 0 -6 9q0 238 543 260q27 63 67 63q27 0 62 -12t35 -27q0 -6 -15 -22q37 -2 37 -6q0 -8 -13.5 -22.5t-23.5 -14.5h-37q-266 -297 -428 -551t-168 -361q215 4 328 33 q8 2 19.5 2t11.5 -8q0 -14 -51 -23l-299 -57q16 -23 59 -22l78 14q10 0 10 -4q-6 -14 -49 -28.5t-66 -14.5q-55 0 -80 49q-152 -27 -196.5 -27t-55 17.5t-10.5 66.5zM858 1100q0 10 121 102t131 92q20 0 20 -23.5t-13 -35.5t-125.5 -78.5t-123 -66.5t-10.5 10z" />
<glyph unicode="&#xce;" horiz-adv-x="718" d="M-31 -33q1 10 11 10l120 -10h117v17q0 211 500 888q-389 -33 -463 -147q-2 -6 -8 -29q-8 -43 -29 -43q-6 0 -6 9q0 238 543 260q27 63 67 63q27 0 62 -12t35 -27q0 -6 -15 -22q37 -2 37 -6q0 -8 -13.5 -22.5t-23.5 -14.5h-37q-266 -297 -428 -551t-168 -361q215 4 328 33 q8 2 19.5 2t11.5 -8q0 -14 -51 -23l-299 -57q16 -23 59 -22l78 14q10 0 10 -4q-6 -14 -49 -28.5t-66 -14.5q-55 0 -80 49q-152 -27 -196.5 -27t-55 17.5t-10.5 66.5zM696 1076.5q0 15.5 97.5 93t113.5 81.5l8 -4q63 -70 193 -168l10 -14l-8 -12q-29 4 -113.5 57t-111.5 80 q-156 -129 -172.5 -129t-16.5 15.5z" />
<glyph unicode="&#xcf;" horiz-adv-x="718" d="M-31 -33q1 10 11 10l120 -10h117v17q0 211 500 888q-389 -33 -463 -147q-2 -6 -8 -29q-8 -43 -29 -43q-6 0 -6 9q0 238 543 260q27 63 67 63q27 0 62 -12t35 -27q0 -6 -15 -22q37 -2 37 -6q0 -8 -13.5 -22.5t-23.5 -14.5h-37q-266 -297 -428 -551t-168 -361q215 4 328 33 q8 2 19.5 2t11.5 -8q0 -14 -51 -23l-299 -57q16 -23 59 -22l78 14q10 0 10 -4q-6 -14 -49 -28.5t-66 -14.5q-55 0 -80 49q-152 -27 -196.5 -27t-55 17.5t-10.5 66.5zM750 1145.5q0 17.5 46 50.5t68 33l6 -2v2v-2q-8 -12 -22 -27l-27 -61q-18 -41 -41 -41q-10 0 -20 15 t-10 32.5zM936 1145.5q0 17.5 46 50.5t71 33l4 -2v2v-2q-8 -12 -23 -27l-24 -61q-14 -41 -41 -41q-12 0 -22.5 15t-10.5 32.5z" />
<glyph unicode="&#xd0;" horiz-adv-x="1421" d="M43 793q0 20 18.5 29t118.5 38q367 111 672 111q242 0 397.5 -115t155.5 -305q0 -117 -66.5 -235.5t-182.5 -215t-291 -157t-372.5 -60.5t-197.5 33q0 18 31 18h32q14 -2 37 -2q203 0 385.5 63.5t300 161t186 209t68.5 212.5q0 158 -125 251t-321 93h-15 q-281 -6 -788 -193q-43 0 -43 64zM96 215q0 37 39 37h111q68 180 217 442q0 8 21.5 44t35.5 61q29 51 50.5 51t49 -11.5t29.5 -21.5q-12 0 -141 -233.5t-170 -329.5h57q51 0 113 4v-6q0 -27 -129 -47l-70 -10q-84 -188 -84 -301q0 -23 14.5 -60t14.5 -43l-4 -2 q-33 0 -53.5 38t-20.5 125t45 230h-6q-8 -4 -27 -4q-92 0 -92 37z" />
<glyph unicode="&#xd1;" horiz-adv-x="968" d="M59 4q0 274 322 813q84 168 123 168q25 0 56.5 -12t31.5 -29q-53 -90 -113.5 -191.5t-90.5 -152.5t-42 -72q-141 -256 -196 -434q133 217 626 658l160 145q31 27 84 31q25 0 24 -15l-2 -8q-301 -596 -301 -876q0 -150 53.5 -150t141.5 215q14 27 22.5 27t8.5 -10.5 t-4 -22.5q-66 -236 -179 -235q-55 0 -91 55t-36 154.5t52.5 299t124.5 359.5l-420 -379q-285 -288 -285 -438q0 -41 25 -78q0 -8 -11 -8q-37 0 -60.5 58t-23.5 128zM690 1063q0 6 15.5 24.5t45 36t62.5 17.5l148 -33q33 0 65 33q8 0 8 -6.5t-11 -23.5t-36.5 -34.5 t-49.5 -17.5t-84 20.5t-74.5 20.5t-35 -10.5t-35 -20.5t-16.5 -10z" />
<glyph unicode="&#xd2;" horiz-adv-x="1210" d="M45 164q0 182 143.5 361.5t359.5 290t421 110.5q143 0 229 -56.5t86 -152.5q0 -51 -43 -139q8 -25 8 -68q0 -199 -221 -395q-168 -147 -319.5 -208t-350.5 -61q-135 0 -224 90.5t-89 227.5zM158 182q0 -135 78.5 -208.5t217 -73.5t294 70.5t276.5 204.5t137 290 q-104 -117 -278 -209q-8 -4 -11.5 -4t-3.5 2q0 -2 58 45q156 131 233 227q-14 80 -76.5 140.5t-154.5 87.5q-35 8 -126 13t-100 9l7 4q72 23 167 23t197.5 -48t147.5 -128q14 36 14 73q0 88 -72.5 140.5t-193.5 52.5q-184 0 -372.5 -99.5t-313.5 -267.5t-125 -344zM864 1163 v15q0 27 15.5 26.5t143.5 -96.5t128 -109.5t-14 -13.5q-39 12 -114 58.5t-90 55.5t-25.5 17t-18.5 13.5t-12.5 10.5t-8.5 7q-4 4 -4 16z" />
<glyph unicode="&#xd3;" horiz-adv-x="1210" d="M45 164q0 182 143.5 361.5t359.5 290t421 110.5q143 0 229 -56.5t86 -152.5q0 -51 -43 -139q8 -25 8 -68q0 -199 -221 -395q-168 -147 -319.5 -208t-350.5 -61q-135 0 -224 90.5t-89 227.5zM158 182q0 -135 78.5 -208.5t217 -73.5t294 70.5t276.5 204.5t137 290 q-104 -117 -278 -209q-8 -4 -11.5 -4t-3.5 2q0 -2 58 45q156 131 233 227q-14 80 -76.5 140.5t-154.5 87.5q-35 8 -126 13t-100 9l7 4q72 23 167 23t197.5 -48t147.5 -128q14 36 14 73q0 88 -72.5 140.5t-193.5 52.5q-184 0 -372.5 -99.5t-313.5 -267.5t-125 -344z M1034 1021q0 11 121 103.5t131 92.5q21 0 21 -25t-19 -39q-6 -8 -119.5 -75.5t-124 -67.5t-10.5 11z" />
<glyph unicode="&#xd4;" horiz-adv-x="1210" d="M45 164q0 182 143.5 361.5t359.5 290t421 110.5q143 0 229 -56.5t86 -152.5q0 -51 -43 -139q8 -25 8 -68q0 -199 -221 -395q-168 -147 -319.5 -208t-350.5 -61q-135 0 -224 90.5t-89 227.5zM158 182q0 -135 78.5 -208.5t217 -73.5t294 70.5t276.5 204.5t137 290 q-104 -117 -278 -209q-8 -4 -11.5 -4t-3.5 2q0 -2 58 45q156 131 233 227q-14 80 -76.5 140.5t-154.5 87.5q-35 8 -126 13t-100 9l7 4q72 23 167 23t197.5 -48t147.5 -128q14 36 14 73q0 88 -72.5 140.5t-193.5 52.5q-184 0 -372.5 -99.5t-313.5 -267.5t-125 -344zM840 1028 q0 16 97 93t114 81l8 -4q63 -70 192 -166l9 -16l-7 -10q-29 2 -113.5 54t-111.5 81q-160 -129 -176 -129q-12 0 -12 16z" />
<glyph unicode="&#xd5;" horiz-adv-x="1210" d="M45 164q0 182 143.5 361.5t359.5 290t421 110.5q143 0 229 -56.5t86 -152.5q0 -51 -43 -139q8 -25 8 -68q0 -199 -221 -395q-168 -147 -319.5 -208t-350.5 -61q-135 0 -224 90.5t-89 227.5zM158 182q0 -135 78.5 -208.5t217 -73.5t294 70.5t276.5 204.5t137 290 q-104 -117 -278 -209q-8 -4 -11.5 -4t-3.5 2q0 -2 58 45q156 131 233 227q-14 80 -76.5 140.5t-154.5 87.5q-35 8 -126 13t-100 9l7 4q72 23 167 23t197.5 -48t147.5 -128q14 36 14 73q0 88 -72.5 140.5t-193.5 52.5q-184 0 -372.5 -99.5t-313.5 -267.5t-125 -344zM926 1044 q0 6 14 24.5t44 37t63 18.5l147 -32q39 0 66 32q10 0 10 -7t-11.5 -24.5t-38 -35t-50 -17.5t-84 20.5t-75 20.5t-35 -10t-33.5 -20.5t-15 -10.5z" />
<glyph unicode="&#xd6;" horiz-adv-x="1210" d="M45 164q0 182 143.5 361.5t359.5 290t421 110.5q143 0 229 -56.5t86 -152.5q0 -51 -43 -139q8 -25 8 -68q0 -199 -221 -395q-168 -147 -319.5 -208t-350.5 -61q-135 0 -224 90.5t-89 227.5zM158 182q0 -135 78.5 -208.5t217 -73.5t294 70.5t276.5 204.5t137 290 q-104 -117 -278 -209q-8 -4 -11.5 -4t-3.5 2q0 -2 58 45q156 131 233 227q-14 80 -76.5 140.5t-154.5 87.5q-35 8 -126 13t-100 9l7 4q72 23 167 23t197.5 -48t147.5 -128q14 37 14 78q0 84 -72.5 136t-193.5 52q-184 0 -372.5 -99.5t-313.5 -267.5t-125 -344zM936 1060.5 q0 18.5 46 50.5t69 32l6 -2v2v-2q-2 -2 -4 -6q-10 -12 -19 -21l-26 -61q-18 -41 -41 -41q-10 0 -20.5 15t-10.5 33.5zM1122 1060.5q0 18.5 46 50.5t71 32l4 -2v2v-2l-6 -6q-8 -12 -16 -21l-25 -61q-16 -41 -41 -41q-12 0 -22.5 15t-10.5 33.5z" />
<glyph unicode="&#xd7;" horiz-adv-x="581" d="M43 63q10 20 105.5 110.5t119.5 107.5l-20 114q-12 47 -30.5 69.5t-30 26t-11.5 7.5q0 12 80 12l27 2q20 0 27 -23.5t28 -166.5q25 25 126 106.5t105 81.5q27 0 27 -25q0 -6 -9 -14t-243 -186q31 -186 121 -187q10 0 57 15q6 0 6 -4q0 -14 -51 -33t-88 -19t-62.5 41 t-50.5 146q-16 -20 -106 -105.5t-108.5 -85.5t-18.5 10z" />
<glyph unicode="&#xd8;" horiz-adv-x="1210" d="M45 153.5q0 194.5 145.5 374t360.5 289t418 109.5h4q47 49 57 49q90 0 90 -39q0 -14 -12 -29q176 -47 176 -190q0 -51 -43 -139q8 -25 8 -68q0 -199 -221 -395q-168 -147 -319.5 -208t-350.5 -61q-51 1 -90 13q-16 -33 -16 -56.5t22 -42.5q0 -25 -37.5 -24.5t-37.5 59.5 q0 27 18 82q-172 82 -172 276.5zM158 195.5q0 -162.5 98 -240.5q53 94 236.5 348t349.5 463l-27 -2q-90 0 -113 12l7 4q72 23 137 23h24q68 82 76 90q-178 -4 -361.5 -104.5t-305 -265.5t-121.5 -327.5zM305 -74q53 -27 170 -26.5t272.5 71t276.5 204.5t137 290 q-104 -117 -278 -209q-8 -4 -11.5 -4t-3.5 2q0 -2 58 45q156 131 233 227q-20 147 -194 213q-381 -430 -660 -813zM1001 782q157 -42 220 -155q14 37 14 85t-40 98t-110 71z" />
<glyph unicode="&#xd9;" horiz-adv-x="724" d="M10 535l4 8q61 78 220 187.5t219 109.5q33 0 60.5 -26t27.5 -56.5t-129 -235.5t-175.5 -301t-46.5 -190q0 -35 29 -35q53 0 228.5 155.5t232.5 268.5q119 244 245 384t228 140q45 0 45 -41q0 -63 -80 -160q-47 -55 -94 -106q-125 -133 -311 -342q-33 -53 -69 -199.5 t-36 -216.5q0 -248 86 -340q2 0 1 -3t-5 -5q-51 0 -100 148.5t-49 261t32 215.5q-193 -236 -305 -236q-55 0 -103 60.5t-48 115.5q0 137 131 361l211 342q-102 -33 -226 -115q-217 -152 -221 -152zM563 1110v12q0 25 21 25q10 0 138 -96.5t128 -109.5t-12 -13 q-33 10 -92.5 47t-78 48t-35 20.5t-26.5 17.5t-18 13t-12.5 10.5t-6.5 7.5q-6 4 -6 18zM737 412q0 -2 2 -6q150 145 287 304.5t137 192.5q0 10 -12 10q-59 0 -193.5 -160.5t-220.5 -336.5v-4z" />
<glyph unicode="&#xda;" horiz-adv-x="724" d="M10 535l4 8q61 78 220 187.5t219 109.5q33 0 60.5 -26t27.5 -56.5t-129 -235.5t-175.5 -301t-46.5 -190q0 -35 29 -35q53 0 228.5 155.5t232.5 268.5q119 244 245 384t228 140q45 0 45 -41q0 -63 -80 -160q-47 -55 -94 -106q-125 -133 -311 -342q-33 -53 -69 -199.5 t-36 -216.5q0 -248 86 -340q2 0 1 -3t-5 -5q-51 0 -100 148.5t-49 261t32 215.5q-193 -236 -305 -236q-55 0 -103 60.5t-48 115.5q0 137 131 361l211 342q-102 -33 -226 -115q-217 -152 -221 -152zM680 926.5q0 11.5 120 103.5t135 92t15 -23.5t-11 -35.5t-126 -80t-124 -68 t-9 11.5zM737 412q0 -2 2 -6q150 145 287 304.5t137 192.5q0 10 -12 10q-59 0 -193.5 -160.5t-220.5 -336.5v-4z" />
<glyph unicode="&#xdb;" horiz-adv-x="724" d="M10 535l4 8q61 78 220 187.5t219 109.5q33 0 60.5 -26t27.5 -56.5t-129 -235.5t-175.5 -301t-46.5 -190q0 -35 29 -35q53 0 228.5 155.5t232.5 268.5q119 244 245 384t228 140q45 0 45 -41q0 -63 -80 -160q-47 -55 -94 -106q-125 -133 -311 -342q-33 -53 -69 -199.5 t-36 -216.5q0 -248 86 -340q2 0 1 -3t-5 -5q-51 0 -100 148.5t-49 261t32 215.5q-193 -236 -305 -236q-55 0 -103 60.5t-48 115.5q0 137 131 361l211 342q-102 -33 -226 -115q-217 -152 -221 -152zM545 942q0 16 97 93t114 81l8 -4q70 -72 194 -166l9 -16l-6 -10 q-31 2 -116 54t-112 81q-160 -129 -174 -129t-14 16zM737 412q0 -2 2 -6q150 145 287 304.5t137 192.5q0 10 -12 10q-59 0 -193.5 -160.5t-220.5 -336.5v-4z" />
<glyph unicode="&#xdc;" horiz-adv-x="724" d="M10 535l4 8q61 78 220 187.5t219 109.5q33 0 60.5 -26t27.5 -56.5t-129 -235.5t-175.5 -301t-46.5 -190q0 -35 29 -35q53 0 228.5 155.5t232.5 268.5q119 244 245 384t228 140q45 0 45 -41q0 -63 -80 -160q-47 -55 -94 -106q-125 -133 -311 -342q-33 -53 -69 -199.5 t-36 -216.5q0 -248 86 -340q2 0 1 -3t-5 -5q-51 0 -100 148.5t-49 261t32 215.5q-193 -236 -305 -236q-55 0 -103 60.5t-48 115.5q0 137 131 361l211 342q-102 -33 -226 -115q-217 -152 -221 -152zM664 1005.5q0 18.5 46 51.5t68 33l6 -5v5v-5q-8 -12 -22 -24l-25 -62 q-20 -43 -43 -43q-10 0 -20 15.5t-10 34zM737 412q0 -2 2 -6q150 145 287 304.5t137 192.5q0 10 -12 10q-59 0 -193.5 -160.5t-220.5 -336.5v-4zM850 1005.5q0 18.5 46 51.5t71 33l4 -5v5v-5q-8 -12 -23 -24l-22 -62q-18 -43 -43 -43q-10 0 -21.5 15.5t-11.5 34z" />
<glyph unicode="&#xdd;" horiz-adv-x="1105" d="M33 720q0 5 6 15q84 123 188.5 208t178.5 85q150 0 149 -188q0 -213 -188 -643l309 432q254 344 318.5 344t64.5 -27q-2 -4 -12 -12q80 -80 79 -168q0 -49 -16 -104q31 10 53.5 10t22.5 -7.5t-9.5 -15.5t-21.5 -14q-41 -23 -57 -31q-63 -195 -307 -536 q-223 -328 -344 -455t-195 -127q-96 0 -96 90q0 55 86 202.5t200 272.5q55 61 225.5 213t307.5 285q16 14 42.5 133t26.5 174t-28 55q-82 0 -590 -706l-100 -139q-27 -55 -72 -55.5t-45 40.5v6l143 338q70 164 105 301.5t37 190.5q0 125 -80 125q-39 0 -132.5 -71 t-169 -142.5t-75.5 -83.5h2q-6 0 -6 5zM221 -455.5q0 -13.5 10 -13.5h9q8 0 49 35q154 129 345 394t308 509q-532 -481 -698 -862q-23 -49 -23 -62.5zM733 994.5q0 11.5 121 103.5t131 92q20 0 20.5 -23.5t-12 -36t-126 -80t-124 -67.5t-10.5 11.5z" />
<glyph unicode="&#xde;" horiz-adv-x="337" d="M-223 -434q0 109 153 508l39 104q-8 0 -8 9.5t4 13.5l8 -6q135 346 232 567q47 137 47 179t-37 42l-72 -14q-14 0 -14 12q0 31 76 31t119 -27t43 -74t-80 -206l-13 4q70 47 150 47q141 0 141 -147.5t-150.5 -337t-285.5 -189.5q-49 0 -94 29q-190 -512 -191 -586 q0 -49 37 -49q10 0 35 11t29 11t4 -4q0 -14 -29 -27.5t-55.5 -13.5t-57 37t-30.5 76zM53 158q25 -4 37 -4q135 0 257 166.5t122 330.5q0 64 -43 64q-88 0 -197 -156q-133 -283 -176 -401z" />
<glyph unicode="&#xdf;" horiz-adv-x="897" d="M-217 -299q2 14 18 14q170 0 381 551q27 74 34 94.5t32.5 88t37 92t37 81t44 80t47 64.5t54.5 59.5t58 38.5q57 39 151.5 39t157 -55.5t62.5 -145.5q0 -121 -101.5 -205.5t-230.5 -88.5q119 -20 186.5 -78t67.5 -133q0 -137 -188.5 -230.5t-476.5 -93.5q-84 12 -84 21 q-139 -207 -256 -207q-23 0 -31 14zM96 -84q82 -8 97 -8q203 0 363.5 101.5t160.5 219.5q0 125 -166 125l-162 -20q-14 0 -14 17.5t14 41t31 29.5q16 -6 53 -6q147 0 246.5 77.5t99.5 200.5q0 74 -43 123t-112 49q-135 0 -228 -207q-4 -4 -30 -69q-94 -244 -310 -674z" />
<glyph unicode="&#xe0;" horiz-adv-x="765" d="M12 58.5q0 60.5 72 183.5t174 219t178 98h21q76 0 129 -29.5t53 -78.5q0 -23 -18 -23q-6 0 -7 6q-35 76 -100 76q-115 0 -265.5 -191.5t-150.5 -291.5q0 -39 21 -39q92 0 387 415q4 4 13 4.5t42 -19t33 -34.5l-29 -53q-68 -143 -67.5 -251.5t53.5 -108.5l20 4l4 -2 q0 -18 -50 -18.5t-81.5 44.5t-31.5 122t28 175q0 -6 -55 -84q-168 -260 -264 -260q-41 0 -75 38t-34 98.5zM362 831v19q0 27 16.5 27t144.5 -95.5t128 -110t-14 -14.5q-31 8 -111 57.5t-107.5 66t-42 31.5t-14.5 19z" />
<glyph unicode="&#xe1;" horiz-adv-x="765" d="M12 58.5q0 60.5 72 183.5t174 219t178 98h21q76 0 129 -29.5t53 -78.5q0 -23 -18 -23q-6 0 -7 6q-35 76 -100 76q-115 0 -265.5 -191.5t-150.5 -291.5q0 -39 21 -39q92 0 387 415q4 4 13 4.5t42 -19t33 -34.5l-29 -53q-68 -143 -67.5 -251.5t53.5 -108.5l20 4l4 -2 q0 -18 -50 -18.5t-81.5 44.5t-31.5 122t28 175q0 -6 -55 -84q-168 -260 -264 -260q-41 0 -75 38t-34 98.5zM442 670.5q0 11.5 121 102.5t136.5 91t15.5 -22.5t-14.5 -35.5t-125 -80t-122 -67t-11.5 11.5z" />
<glyph unicode="&#xe2;" horiz-adv-x="765" d="M12 58.5q0 60.5 72 183.5t174 219t178 98h21q76 0 129 -29.5t53 -78.5q0 -23 -18 -23q-6 0 -7 6q-35 76 -100 76q-115 0 -265.5 -191.5t-150.5 -291.5q0 -39 21 -39q92 0 387 415q4 4 13 4.5t42 -19t33 -34.5l-29 -53q-68 -143 -67.5 -251.5t53.5 -108.5l20 4l4 -2 q0 -18 -50 -18.5t-81.5 44.5t-31.5 122t28 175q0 -6 -55 -84q-168 -260 -264 -260q-41 0 -75 38t-34 98.5zM305 638q0 15 96.5 93t112.5 82l10 -4q51 -59 193 -168l6 -14l-6 -13q-29 4 -113 57.5t-110 80.5q-161 -129 -179 -129q-10 0 -10 15z" />
<glyph unicode="&#xe3;" horiz-adv-x="765" d="M12 58.5q0 60.5 72 183.5t174 219t178 98h21q76 0 129 -29.5t53 -78.5q0 -23 -18 -23q-6 0 -7 6q-35 76 -100 76q-115 0 -265.5 -191.5t-150.5 -291.5q0 -39 21 -39q92 0 387 415q4 4 13 4.5t42 -19t33 -34.5l-29 -53q-68 -143 -67.5 -251.5t53.5 -108.5l20 4l4 -2 q0 -18 -50 -18.5t-81.5 44.5t-31.5 122t28 175q0 -6 -55 -84q-168 -260 -264 -260q-41 0 -75 38t-34 98.5zM350 653q0 8 15.5 25.5t45 34t60.5 16.5l147 -31q39 0 64 33q8 0 8 -6t-12 -23.5t-38 -37t-45.5 -19.5t-80.5 21.5t-76.5 21.5t-35 -10t-34 -20.5t-16.5 -10.5z" />
<glyph unicode="&#xe4;" horiz-adv-x="765" d="M12 58.5q0 60.5 72 183.5t174 219t178 98h21q76 0 129 -29.5t53 -78.5q0 -23 -18 -23q-6 0 -7 6q-35 76 -100 76q-115 0 -265.5 -191.5t-150.5 -291.5q0 -39 21 -39q92 0 387 415q4 4 13 4.5t42 -19t33 -34.5l-29 -53q-68 -143 -67.5 -251.5t53.5 -108.5l20 4l4 -2 q0 -18 -50 -18.5t-81.5 44.5t-31.5 122t28 175q0 -6 -55 -84q-168 -260 -264 -260q-41 0 -75 38t-34 98.5zM393 674.5q0 17.5 45 50.5t70 33l6 -2v2v-2q-2 -2 -9 -11.5t-13 -15.5l-25 -61q-14 -41 -41 -41q-12 0 -22.5 15t-10.5 32.5zM578 673.5q0 16.5 46 50.5t70 34l6 -2 v2v-2q-8 -12 -22 -27l-25 -61q-14 -41 -41 -41q-10 0 -22 15t-12 31.5z" />
<glyph unicode="&#xe5;" horiz-adv-x="765" d="M12 58.5q0 60.5 72 183.5t174 219t178 98h21q76 0 129 -29.5t53 -78.5q0 -23 -18 -23q-6 0 -7 6q-35 76 -100 76q-115 0 -265.5 -191.5t-150.5 -291.5q0 -39 21 -39q92 0 387 415q4 4 13 4.5t42 -19t33 -34.5l-29 -53q-68 -143 -67.5 -251.5t53.5 -108.5l20 4l4 -2 q0 -18 -50 -18.5t-81.5 44.5t-31.5 122t28 175q0 -6 -55 -84q-168 -260 -264 -260q-41 0 -75 38t-34 98.5zM446 600.5q0 -61.5 62 -61.5q55 0 99 45t44 100q0 80 -65 80q-43 0 -91.5 -51t-48.5 -112.5zM503.5 603q0.5 34 37.5 83q12 18 12 21l-18 10q31 18 47 18 q33 0 32.5 -47t-27 -83t-61.5 -36q-23 0 -22.5 34z" />
<glyph unicode="&#xe6;" horiz-adv-x="970" d="M12 58.5q0 60.5 72 183.5t174 219t178 98h21q133 0 176 -84q92 84 146.5 84t93 -31.5t38.5 -76.5q0 -80 -96 -155t-186 -75q-23 0 -23 8l10 11q236 74 236 241q0 25 -18 25q-23 0 -80 -47q-100 -82 -174 -204t-74 -207t61 -85q70 0 160 76q49 41 217 217q8 0 8 -11.5 t-4 -15.5q-211 -313 -350 -313q-27 0 -68 8h-2q-55 0 -85.5 46t-30.5 122t28 174q0 -6 -55 -84q-168 -260 -264 -260q-41 0 -75 38t-34 98.5zM98 27q0 -39 21 -39q92 0 387 415q4 4 11 4.5t40 -16.5q18 27 49 58q-29 61 -92 61q-115 0 -265.5 -191.5t-150.5 -291.5z" />
<glyph unicode="&#xe7;" horiz-adv-x="495" d="M-98 -469q0 12 90 23q33 2 61.5 26.5t28.5 69.5q0 8 -41 76.5t-41 87.5q0 55 29.5 94t76.5 39q18 0 21 -10q-72 -10 -72 -97q0 -6 45 -76.5t45 -97.5q0 -68 -68.5 -110.5t-162.5 -42.5q-12 0 -12 18zM-10 78q0 123 124 302t238 179q41 0 85 -29.5t44 -64.5q0 -96 -65 -96 q-18 0 -21 10q25 55 25 91t-17 36q-25 0 -81 -47q-100 -82 -174 -205t-74 -207t63 -84q72 0 162 76q57 53 134 135t79 82q12 0 12 -9t-4 -18q-215 -313 -356 -313q-174 0 -174 162z" />
<glyph unicode="&#xe8;" horiz-adv-x="538" d="M-10 78q0 125 124 303t240 178q49 0 87 -31.5t38 -76.5q0 -78 -96 -154t-186 -76q-18 0 -19 8l6 11q236 74 236 241q0 25 -17 25q-25 0 -81 -47q-100 -82 -174 -205t-74 -207t63 -84q72 0 162 76q57 53 134 135t79 82q12 0 12 -9t-4 -18q-215 -313 -356 -313 q-174 0 -174 162zM225 820.5q0 25.5 21 25.5q10 0 139 -98.5t129 -109.5t-17.5 -11t-139 74.5t-127 84t-5.5 35z" />
<glyph unicode="&#xe9;" horiz-adv-x="538" d="M-10 78q0 125 124 303t240 178q49 0 87 -31.5t38 -76.5q0 -78 -96 -154t-186 -76q-18 0 -19 8l6 11q236 74 236 241q0 25 -17 25q-25 0 -81 -47q-100 -82 -174 -205t-74 -207t63 -84q72 0 162 76q57 53 134 135t79 82q12 0 12 -9t-4 -18q-215 -313 -356 -313 q-174 0 -174 162zM399 635q0 8 123 101t135.5 93t12.5 -23.5t-11.5 -35.5t-124 -79.5t-124 -67.5t-11.5 12z" />
<glyph unicode="&#xea;" horiz-adv-x="538" d="M-10 78q0 125 124 303t240 178q49 0 87 -31.5t38 -76.5q0 -78 -96 -154t-186 -76q-18 0 -19 8l6 11q236 74 236 241q0 25 -17 25q-25 0 -81 -47q-100 -82 -174 -205t-74 -207t63 -84q72 0 162 76q57 53 134 135t79 82q12 0 12 -9t-4 -18q-215 -313 -356 -313 q-174 0 -174 162zM201 619.5q0 15.5 96 94.5t113 81l10 -2q66 -72 194 -166l7 -17l-7 -10q-29 0 -110.5 51t-116.5 84q-152 -131 -169 -131t-17 15.5z" />
<glyph unicode="&#xeb;" horiz-adv-x="538" d="M-10 78q0 125 124 303t240 178q49 0 87 -31.5t38 -76.5q0 -78 -96 -154t-186 -76q-18 0 -19 8l6 11q236 74 236 241q0 25 -17 25q-25 0 -81 -47q-100 -82 -174 -205t-74 -207t63 -84q72 0 162 76q57 53 134 135t79 82q12 0 12 -9t-4 -18q-215 -313 -356 -313 q-174 0 -174 162zM285 672.5q0 17.5 46 50.5t68 33l7 -2v-2q-12 -18 -23 -27l-27 -61q-18 -41 -41 -41q-8 0 -19 16t-11 33.5zM471 672.5q0 17.5 46 50.5t71 33l4 -2v-2q-12 -18 -23 -27l-24 -61q-14 -41 -41 -41q-10 0 -21.5 16t-11.5 33.5z" />
<glyph unicode="&#xec;" horiz-adv-x="368" d="M-25 31q0 72 92.5 225.5t147.5 153.5q14 0 34.5 -12.5t20.5 -24.5q-10 -10 -19 -22.5t-23.5 -31t-34 -44t-41.5 -54.5q-117 -152 -117 -207t41 -55q25 0 110.5 57.5t148 109.5t62.5 60q2 -2 2 -8q0 -41 -140 -146.5t-191 -105.5q-92 0 -93 105zM66 751.5q0 26.5 16 26.5 t143 -96t127 -109.5t-12 -13.5q-35 8 -138.5 72.5t-119.5 79t-16 41z" />
<glyph unicode="&#xed;" horiz-adv-x="368" d="M-25 31q0 72 92.5 225.5t147.5 153.5q14 0 34.5 -12.5t20.5 -24.5q-10 -10 -19 -22.5t-23.5 -31t-34 -44t-41.5 -54.5q-117 -152 -117 -207t41 -55q25 0 110.5 57.5t148 109.5t62.5 60q2 -2 2 -8q0 -41 -140 -146.5t-191 -105.5q-92 0 -93 105zM262.5 550 q-0.5 13 149 127t168 114t18.5 -30t-15.5 -44.5t-156.5 -97t-145 -82.5q-18 0 -18.5 13z" />
<glyph unicode="&#xee;" horiz-adv-x="368" d="M-25 31q0 72 92.5 225.5t147.5 153.5q14 0 34.5 -12.5t20.5 -24.5q-10 -10 -19 -22.5t-23.5 -31t-34 -44t-41.5 -54.5q-117 -152 -117 -207t41 -55q25 0 110.5 57.5t148 109.5t62.5 60q2 -2 2 -8q0 -41 -140 -146.5t-191 -105.5q-92 0 -93 105zM72 523.5q0 15.5 97 93 t114 81.5l8 -4q68 -70 192 -166l11 -16l-7 -10q-31 2 -115.5 54t-111.5 81q-158 -129 -173 -129t-15 15.5z" />
<glyph unicode="&#xef;" horiz-adv-x="368" d="M-25 31q0 72 92.5 225.5t147.5 153.5q14 0 34.5 -12.5t20.5 -24.5q-10 -10 -19 -22.5t-23.5 -31t-34 -44t-41.5 -54.5q-117 -152 -117 -207t41 -55q25 0 110.5 57.5t148 109.5t62.5 60q2 -2 2 -8q0 -41 -140 -146.5t-191 -105.5q-92 0 -93 105zM162 606.5q0 18.5 46 50 t71 31.5l6 -2q-12 -16 -25 -27l-22 -61q-18 -41 -43 -41q-10 0 -21.5 15.5t-11.5 34zM348 605.5q0 17.5 46 50t71 32.5l6 -2q-6 -10 -25 -27l-22 -61q-18 -41 -43 -41q-10 0 -21.5 15.5t-11.5 33z" />
<glyph unicode="&#xf0;" d="M-23 668q0 70 75 121t147.5 51t132.5 -82q72 37 133 76l4 -7v-4q0 -23 -113 -112q33 -57 86 -209q96 -18 97 -45q-1 -31 -21 -31l-51 8q4 -41 4 -65q0 -170 -86 -300t-215 -130q-166 0 -166 174q0 152 116 275.5t222 123.5q0 51 -55 147l-66 -47q-49 -25 -71 -24 q-33 0 -33 33q0 14 22 30l115 64q-53 68 -98 67q-88 0 -150 -131q-6 -14 -12 -14q-16 0 -17 31zM86 70q0 -106 83 -106.5t156.5 131.5t73.5 253q0 53 -18 86q-92 -10 -164 -82.5t-101.5 -148.5t-29.5 -133z" />
<glyph unicode="&#xf1;" horiz-adv-x="624" d="M39 -31q0 35 67.5 247t67.5 319q0 29 -14.5 34.5t-28.5 4.5t-14 10q0 18 30 18q137 0 138 -113q0 -43 -99 -333q90 141 174 243.5t113 102.5q2 -2 2 -7.5t-16 -25.5q-221 -268 -307 -459l-19 -53q-12 -23 -30.5 -23t-41 10.5t-22.5 24.5zM309 678q0 6 14.5 24.5t44 36 t62.5 17.5l145 -33q43 0 64 33q10 0 10 -4q0 -16 -31.5 -48t-58.5 -32t-88 21.5t-76.5 21.5t-35 -11.5t-33 -21.5t-15.5 -10zM395 120.5q0 100.5 53.5 265.5t102.5 165h10q72 0 72 -29q0 8 -10 -10q-57 -104 -102.5 -251.5t-45.5 -192.5q0 -125 45 -125q14 0 38 19.5 t20 19.5q6 0 6 -17q0 -53 -61.5 -53t-94.5 54t-33 154.5z" />
<glyph unicode="&#xf2;" d="M4 113q0 70 32 148.5t79 127.5q-23 37 -23 96.5t49 107.5t121 48q135 0 180 -139q96 -18 97 -45q-1 -31 -21 -31l-51 8q4 -41 4 -65q0 -170 -86 -300t-215 -130q-166 0 -166 174zM86 74.5q0 -111.5 83 -111.5t156.5 132t73.5 253q0 53 -18 86q-78 -12 -166 -96 q20 -14 32.5 -13t14.5 1q10 0 10 -11q0 -16 -27.5 -16t-49.5 14q-109 -127 -109 -238.5zM137 466q0 -40 6 -58q139 104 193 104h6q-26 72 -104 72q-43 0 -72 -39t-29 -79zM180 905v15q0 27 15.5 26.5t143.5 -97.5t128 -109.5t-14 -12.5q-39 12 -114 58t-90.5 55.5 t-25.5 17.5t-18 13.5t-12.5 10.5t-8.5 7q-4 4 -4 16z" />
<glyph unicode="&#xf3;" d="M4 113q0 70 32 148.5t79 127.5q-23 37 -23 96.5t49 107.5t121 48q135 0 180 -139q96 -18 97 -45q-1 -31 -21 -31l-51 8q4 -41 4 -65q0 -170 -86 -300t-215 -130q-166 0 -166 174zM86 74.5q0 -111.5 83 -111.5t156.5 132t73.5 253q0 53 -18 86q-78 -12 -166 -96 q20 -14 32.5 -13t14.5 1q10 0 10 -11q0 -16 -27.5 -16t-49.5 14q-109 -127 -109 -238.5zM137 466q0 -40 6 -58q139 104 193 104h6q-26 72 -104 72q-43 0 -72 -39t-29 -79zM344 725q0 10 121 102.5t131 92.5q20 0 20 -23t-12 -35t-127 -79.5t-124 -67.5t-9 10z" />
<glyph unicode="&#xf4;" d="M4 113q0 70 32 148.5t79 127.5q-23 37 -23 96.5t49 107.5t121 48q135 0 180 -139q96 -18 97 -45q-1 -31 -21 -31l-51 8q4 -41 4 -65q0 -170 -86 -300t-215 -130q-166 0 -166 174zM86 74.5q0 -111.5 83 -111.5t156.5 132t73.5 253q0 53 -18 86q-78 -12 -166 -96 q20 -14 32.5 -13t14.5 1q10 0 10 -11q0 -16 -27.5 -16t-49.5 14q-109 -127 -109 -238.5zM137 466q0 -40 6 -58q139 104 193 104h6q-26 72 -104 72q-43 0 -72 -39t-29 -79zM174 711.5q0 15.5 96.5 93.5t112.5 82l10 -4q63 -70 193 -166l8 -17l-6 -10q-31 2 -115 54.5 t-111 80.5q-160 -129 -176 -129q-12 0 -12 15.5z" />
<glyph unicode="&#xf5;" d="M4 113q0 70 32 148.5t79 127.5q-23 37 -23 96.5t49 107.5t121 48q135 0 180 -139q96 -18 97 -45q-1 -31 -21 -31l-51 8q4 -41 4 -65q0 -170 -86 -300t-215 -130q-166 0 -166 174zM86 74.5q0 -111.5 83 -111.5t156.5 132t73.5 253q0 53 -18 86q-78 -12 -166 -96 q20 -14 32.5 -13t14.5 1q10 0 10 -11q0 -16 -27.5 -16t-49.5 14q-109 -127 -109 -238.5zM137 466q0 -40 6 -58q139 104 193 104h6q-26 72 -104 72q-43 0 -72 -39t-29 -79zM223 741q0 8 15.5 26.5t45 36t62.5 17.5l148 -33q35 0 65 33q8 0 8 -6t-11 -23.5t-36.5 -36 t-49.5 -18.5t-84 21.5t-74.5 21.5t-35 -11t-35 -21.5t-16.5 -10.5z" />
<glyph unicode="&#xf6;" d="M4 113q0 70 32 148.5t79 127.5q-23 37 -23 96.5t49 107.5t121 48q135 0 180 -139q96 -18 97 -45q-1 -31 -21 -31l-51 8q4 -41 4 -65q0 -170 -86 -300t-215 -130q-166 0 -166 174zM86 74.5q0 -111.5 83 -111.5t156.5 132t73.5 253q0 53 -18 86q-78 -12 -166 -96 q20 -14 32.5 -13t14.5 1q10 0 10 -11q0 -16 -27.5 -16t-49.5 14q-109 -127 -109 -238.5zM137 466q0 -40 6 -58q139 104 193 104h6q-26 72 -104 72q-43 0 -72 -39t-29 -79zM256 769q0 17 46 50t69 33l6 -2v2v-2q-12 -18 -23 -27l-26 -61q-18 -41 -41 -41q-8 0 -19.5 15.5 t-11.5 32.5zM442 769q0 17 46.5 50t70.5 33l4 -2v2v-2q-12 -18 -22 -27l-23 -61q-18 -41 -43 -41q-10 0 -21.5 15.5t-11.5 32.5z" />
<glyph unicode="&#xf7;" horiz-adv-x="626" d="M28.5 307q0.5 37 39.5 37l397 2q86 0 147 4q2 -2 2 -6q0 -18 -138 -46t-206 -28q-242 0 -241.5 37zM219 162q0 43 60 43q24 0 43.5 -15.5t19.5 -35t-19.5 -34t-37.5 -14.5q-66 0 -66 56zM289 469q0 45 59 45q25 0 45.5 -15.5t20.5 -35t-19.5 -33.5t-40.5 -14 q-66 0 -65 53z" />
<glyph unicode="&#xf8;" d="M4 113q0 70 32 149.5t79 126.5q-25 35 -25 95.5t50 108.5t121 48t118 -41q104 213 119 213q53 0 53 -35q0 -8 -8 -24l-117 -215q14 -29 36 -43.5t38 -14.5q39 0 39 -24q0 -31 -25 -31q-4 0 -23.5 4t-25.5 4q6 -31 6 -65q0 -174 -86 -302t-217 -128q-20 0 -45 4 q-68 -135 -68 -199q0 -18 6.5 -26.5t6.5 -10.5q0 -20 -19 -20q-25 0 -24.5 66.5t61.5 201.5q-82 39 -82 158zM84 70q0 -45 18 -70q33 70 81 184.5t96 206.5q-37 -23 -64 -53l6 -10q0 -16 -12 -16.5t-16 1.5q-109 -127 -109 -243zM135 -29q25 -8 33 -8q84 0 157.5 133 t73.5 252q0 53 -20 86q-4 -2 -10 -2q-113 -211 -215 -428zM137 462q0 -42 6 -54q133 102 195 104l2 6q-31 66 -107 66q-43 0 -69.5 -40t-26.5 -82z" />
<glyph unicode="&#xf9;" horiz-adv-x="784" d="M12 43q0 86 90.5 283.5t90.5 205.5l-19 37q0 6 15.5 6t66.5 -20t51 -35q-20 -41 -111.5 -227.5t-91.5 -251t27 -64.5q33 0 94.5 74t120.5 172l172 279q29 49 66 49q74 0 73 -29q0 8 -10 -10q-57 -104 -103 -251.5t-46 -192.5q0 -125 45 -125q14 0 59 39q4 0 4 -17 q0 -53 -60.5 -53t-94 54t-33.5 135t33 216q-160 -260 -214.5 -327.5t-105.5 -67.5t-85 38t-34 83zM326 844.5q0 27.5 20 27.5q10 0 139 -97t129 -111q0 -10 -14 -10.5t-130 69.5t-130 82t-14 39.5z" />
<glyph unicode="&#xfa;" horiz-adv-x="784" d="M12 43q0 86 90.5 283.5t90.5 205.5l-19 37q0 6 15.5 6t66.5 -20t51 -35q-20 -41 -111.5 -227.5t-91.5 -251t27 -64.5q33 0 94.5 74t120.5 172l172 279q29 49 66 49q74 0 73 -29q0 8 -12 -12q-57 -102 -102 -249.5t-45 -192.5q0 -125 45 -125q14 0 59 39q4 0 4 -17 q0 -53 -60.5 -53t-94 54t-33.5 135t33 216q-160 -260 -214.5 -327.5t-105.5 -67.5t-85 38t-34 83zM375 615.5q0 11.5 120.5 103.5t136 92t15.5 -22.5t-13 -37t-126 -81t-123 -66.5t-10 11.5z" />
<glyph unicode="&#xfb;" horiz-adv-x="784" d="M12 43q0 86 90.5 283.5t90.5 205.5l-19 37q0 6 15.5 6t66.5 -20t51 -35q-20 -41 -111.5 -227.5t-91.5 -251t27 -64.5q33 0 94.5 74t120.5 172l172 279q29 49 66 49q74 0 73 -29q0 8 -10 -10q-59 -104 -104 -249.5t-45 -192.5q0 -127 45 -127q14 0 59 39q4 0 4 -17 q0 -53 -60.5 -53t-94 54t-33.5 135t33 216q-160 -260 -214.5 -327.5t-105.5 -67.5t-85 38t-34 83zM244 668.5q0 15.5 95 93.5t112 80l12 -2q57 -70 192 -168l7 -15l-7 -12q-29 0 -109.5 52.5t-115.5 84.5q-153 -129 -176 -129q-10 0 -10 15.5z" />
<glyph unicode="&#xfc;" horiz-adv-x="784" d="M12 43q0 86 90.5 283.5t90.5 205.5l-19 37q0 6 15.5 6t66.5 -20t51 -35q-20 -41 -111.5 -227.5t-91.5 -251t27 -64.5q33 0 94.5 74t120.5 172l172 279q29 49 66 49q74 0 73 -29q0 8 -12 -12q-57 -102 -102 -249.5t-45 -192.5q0 -125 45 -125q14 0 59 39q4 0 4 -17 q0 -53 -60.5 -53t-94 54t-33.5 135t33 216q-160 -260 -214.5 -327.5t-105.5 -67.5t-85 38t-34 83zM342 691.5q0 17.5 46 51t71 33.5l6 -4v-2l-25 -25l-24 -61q-16 -43 -41 -43q-10 0 -21.5 16.5t-11.5 34zM530 692.5q0 18.5 46.5 51t68.5 32.5l6 -4v-2q-2 -2 -9 -10t-13 -15 l-27 -61q-16 -43 -41 -43q-10 0 -20.5 16.5t-10.5 35z" />
<glyph unicode="&#xfd;" horiz-adv-x="598" d="M-375 -842q0 162 232 420q242 272 526 434q10 0 -21 -37q-692 -575 -692 -831q0 -98 78 -98q133 0 321.5 258t322.5 582.5t134 514.5q0 72 -24 99q-272 -285 -381 -480q-35 -86 -62 -86q-61 0 -61 35q-2 20 82 244l57 158q27 82 31 164v8q0 23 -5 26.5t-26.5 3.5 t-21.5 11q0 18 32 18q131 0 132 -98q0 -47 -123 -348q72 98 208 244.5t171 146.5q0 -18 -17 -33q92 -10 98 -41q9 -53 9 -88q0 -197 -136 -520q-152 -352 -362.5 -596t-366.5 -244q-135 0 -135 133zM393 703.5q0 11.5 120 102.5t135.5 91t15.5 -21.5t-17 -41.5 q-10 -8 -122.5 -75t-122 -67t-9.5 11.5z" />
<glyph unicode="&#xfe;" horiz-adv-x="337" d="M-223 -434q0 139 59 293l39 106q-8 0 -8 8.5t4 12.5l8 -6q123 311 326 782q47 137 47 179t-37 42l-72 -14q-14 0 -14 12q0 31 76 31t119 -27t43 -75t-80 -205l-107 -209q66 45 148 45q143 0 143 -138q0 -158 -150.5 -346t-285.5 -188q-53 0 -94 27q-96 -260 -97 -371 q0 -49 37 -49q10 0 35 11t29 11t4 -4q0 -14 -29 -27.5t-55.5 -13.5t-57 37t-30.5 76zM-41 -57q25 -4 37 -4q135 0 257 166.5t122 330.5q0 64 -43 64q-88 0 -197 -156q-133 -283 -176 -401z" />
<glyph unicode="&#xff;" horiz-adv-x="598" d="M-375 -842q0 162 232 420q242 272 526 434q10 0 -21 -37q-692 -575 -692 -831q0 -98 78 -98q133 0 321.5 258t322.5 582.5t134 514.5q0 72 -24 99q-272 -285 -381 -480q-35 -86 -62 -86q-61 0 -61 35q-2 20 82 244l57 158q27 82 31 164v8q0 23 -5 26.5t-26.5 3.5 t-21.5 11q0 18 32 18q131 0 132 -98q0 -47 -123 -348q72 98 208 244.5t171 146.5q0 -18 -17 -33q92 -10 98 -41q9 -53 9 -88q0 -197 -136 -520q-152 -352 -362.5 -596t-366.5 -244q-135 0 -135 133zM51 523.5q0 17.5 45 50t68 32.5l6 -2v2v-2q-6 -10 -20 -26l-27 -62 q-21 -41 -41 -41q-10 0 -20.5 15.5t-10.5 33zM238 523.5q0 -17.5 10 -33t22 -15.5q27 0 41 41l25 62q14 16 20 26v2v-2l-4 2q-25 0 -69.5 -32.5t-44.5 -50zM293 711.5q0 17.5 46 50.5t71 33l4 -2v2v-2q-6 -10 -21 -27l-24 -64q-18 -40 -43 -40q-10 0 -21.5 16t-11.5 33.5z M479 711.5q0 17.5 47 50.5t70 33l6 -2v2v-2q-4 -6 -24 -27l-23 -64q-18 -40 -43 -40q-10 0 -21.5 16t-11.5 33.5z" />
<glyph unicode="&#x152;" horiz-adv-x="2017" d="M45 164q0 182 143.5 361.5t359.5 290t421 110.5q143 0 229 -56.5t86 -152.5q0 -37 -10 -60q131 139 297 223.5t319 84.5q78 -1 107 -17q23 82 59 86q70 0 70 -26q-4 0 -45 -57.5t-82 -129t-41 -102.5l6 -31q0 -4 -4 -4q-31 0 -31 72.5t45 154.5q-20 4 -47 4 q-215 0 -440 -170t-303 -387q469 0 639 48q16 0 16 -11q0 -37 -254 -75.5t-426 -43.5q-6 -39 -6 -73q0 -133 91 -220t235 -87q287 0 508 237q29 29 41 29q8 0 8 -15.5t-19 -35.5q-111 -125 -284.5 -196t-324.5 -71t-247 79t-108 216q-276 -293 -695 -293q-135 0 -224 90.5 t-89 227.5zM158 182q0 -135 78.5 -208.5t220.5 -73.5q268 0 516 223q45 39 61.5 65.5t28.5 94.5q-10 0 -25.5 35.5t-15.5 46t8 10.5l57 -13q4 10 13 39q16 57 59 125q-14 80 -76.5 140.5t-154.5 87.5q-35 8 -126 13t-100 9l7 4q72 23 167 23t197.5 -48t147.5 -128 q14 37 14 73q0 88 -72.5 140.5t-193.5 52.5q-184 0 -372.5 -99.5t-313.5 -267.5t-125 -344z" />
<glyph unicode="&#x153;" horiz-adv-x="880" d="M4 113q0 70 32 148.5t79 127.5q-23 37 -23 96.5t49 107.5t131 48t138.5 -76t60.5 -180q135 174 238 174q49 0 87 -31.5t38 -76.5q0 -78 -96.5 -154t-186.5 -76q-20 0 -21 8l7 11q238 74 237 241q0 25 -18 25q-23 0 -80 -47q-100 -82 -174 -205t-74 -207t64 -84 q70 0 159 76q49 41 131 129t84 88q10 0 10.5 -9t-4.5 -18q-215 -313 -354 -313t-170 100q-72 -78 -178 -77q-166 0 -166 174zM86 74.5q0 -111.5 84 -111.5q90 0 168 150l8 18q4 20 28.5 94t24.5 125t-18 84q-78 -12 -166 -96q20 -14 32.5 -13t14.5 1q10 0 10 -11 q0 -16 -27.5 -16t-49.5 14q-109 -127 -109 -238.5zM137 466q0 -40 6 -58q139 104 193 104h6q-24 72 -104 72q-43 0 -72 -39t-29 -79z" />
<glyph unicode="&#x178;" horiz-adv-x="1105" d="M33 720q0 5 6 15q84 123 188.5 208t178.5 85q150 0 149 -188q0 -213 -188 -643l309 432q254 344 318.5 344t64.5 -27q-2 -4 -12 -12q80 -80 79 -168q0 -49 -16 -104q31 10 53.5 10t22.5 -7.5t-9.5 -15.5t-21.5 -14q-41 -23 -57 -31q-63 -195 -307 -536 q-223 -328 -344 -455t-195 -127q-96 0 -96 90q0 55 86 202.5t200 272.5q55 61 225.5 213t307.5 285q16 14 42.5 133t26.5 174t-28 55q-82 0 -590 -706l-100 -139q-27 -55 -72 -55.5t-45 40.5v6l143 338q70 164 105 301.5t37 190.5q0 125 -80 125q-39 0 -132.5 -71 t-169 -142.5t-75.5 -83.5h2q-6 0 -6 5zM221 -455.5q0 -13.5 10 -13.5h9q8 0 49 35q154 129 345 394t308 509q-532 -481 -698 -862q-23 -49 -23 -62.5zM709 1124.5q0 16.5 45 50t69 33.5l8 -2v-2q-6 -4 -24 -26l-25 -62q-16 -41 -41 -41q-10 0 -21 16.5t-11 33zM895 1126.5 q0 18.5 46 50t69 31.5l6 -2v-2q-8 -8 -21 -26l-26 -62q-16 -41 -41 -41q-10 0 -21.5 16.5t-11.5 35z" />
<glyph unicode="&#x2c6;" horiz-adv-x="571" d="M98 467q0 16 97.5 93t113.5 81l8 -4q55 -61 193 -166l10 -16l-8 -11q-29 2 -114 54.5t-111 81.5q-160 -129 -174.5 -129t-14.5 16z" />
<glyph unicode="&#x2dc;" horiz-adv-x="419" d="M43 625q0 6 15.5 24.5t45 35.5t62.5 17l147 -32q33 0 66 32q8 0 8 -6t-11 -23.5t-37 -34.5t-49.5 -17t-84 20.5t-77.5 20.5t-83 -41z" />
<glyph unicode="&#x2000;" horiz-adv-x="768" />
<glyph unicode="&#x2001;" horiz-adv-x="1536" />
<glyph unicode="&#x2002;" horiz-adv-x="768" />
<glyph unicode="&#x2003;" horiz-adv-x="1536" />
<glyph unicode="&#x2004;" horiz-adv-x="512" />
<glyph unicode="&#x2005;" horiz-adv-x="384" />
<glyph unicode="&#x2006;" horiz-adv-x="256" />
<glyph unicode="&#x2007;" horiz-adv-x="256" />
<glyph unicode="&#x2008;" horiz-adv-x="192" />
<glyph unicode="&#x2009;" horiz-adv-x="307" />
<glyph unicode="&#x200a;" horiz-adv-x="85" />
<glyph unicode="&#x2010;" horiz-adv-x="458" d="M29 307q0 37 39 37h96l98 2h64q53 0 114 4v-6q0 -27 -129 -47q-178 -27 -190 -27q-92 0 -92 37z" />
<glyph unicode="&#x2011;" horiz-adv-x="458" d="M29 307q0 37 39 37h96l98 2h64q53 0 114 4v-6q0 -27 -129 -47q-178 -27 -190 -27q-92 0 -92 37z" />
<glyph unicode="&#x2012;" horiz-adv-x="458" d="M29 307q0 37 39 37h96l98 2h64q53 0 114 4v-6q0 -27 -129 -47q-178 -27 -190 -27q-92 0 -92 37z" />
<glyph unicode="&#x2013;" horiz-adv-x="626" d="M28.5 307q0.5 37 39.5 37l397 2q86 0 147 4q2 -2 2 -6q0 -18 -138 -46t-206 -28q-242 0 -241.5 37z" />
<glyph unicode="&#x2014;" horiz-adv-x="933" d="M29 287q0 12 15 34.5t24 22.5l645 2q164 0 225 4v-6q0 -23 -367 -57q-8 0 -95 -12.5t-267 -12.5t-180 25z" />
<glyph unicode="&#x2018;" horiz-adv-x="270" d="M96 833.5q0 34.5 38 95t87 60.5q8 0 8 -4q-65 -65 -65 -108q0 -14 21.5 -34t21.5 -28q0 -47 -47 -47q-23 0 -43.5 15.5t-20.5 50z" />
<glyph unicode="&#x2019;" horiz-adv-x="243" d="M168 768q70 70 70 106q0 14 -21.5 35t-21.5 31q0 45 47 45q23 0 43 -14.5t20 -51t-39 -97t-88 -60.5q-10 0 -10 6z" />
<glyph unicode="&#x201a;" horiz-adv-x="133" d="M84 53q31 6 39 6t10 -2v-4q0 -33 -13.5 -105.5t-23.5 -72.5q-2 0 -7 83t-5 95z" />
<glyph unicode="&#x201c;" horiz-adv-x="317" d="M23 848q0 35 38.5 96.5t85.5 61.5q8 0 9 -7q-66 -73 -66 -108q0 -16 20.5 -34.5t20.5 -27.5q0 -45 -45 -45q-25 0 -44 14.5t-19 49.5zM178 849q0 34 38 95.5t89 61.5q8 0 8 -5q-67 -67 -67 -112q0 -16 20.5 -34.5t20.5 -25.5q0 -45 -43 -45q-25 0 -45.5 15.5t-20.5 49.5z " />
<glyph unicode="&#x201d;" horiz-adv-x="317" d="M8 782q68 74 68 98.5t-21.5 45t-21.5 26.5q0 47 47 47q22 0 42.5 -15t20.5 -51t-38.5 -95.5t-90.5 -59.5q-6 0 -6 4zM164 784q68 72 67.5 96.5t-21 45t-20.5 26.5q0 47 48 47q22 0 42.5 -15t20.5 -49t-40 -95.5t-87 -61.5q-10 0 -10 6z" />
<glyph unicode="&#x201e;" horiz-adv-x="241" d="M84 53q31 6 39 6t10 -2v-4q0 -33 -13.5 -105.5t-23.5 -72.5q-2 0 -7 83t-5 95zM190 53q31 6 48 6l4 -2v-4q0 -31 -15.5 -104.5t-25.5 -73.5q-2 0 -6.5 80t-4.5 98z" />
<glyph unicode="&#x2022;" horiz-adv-x="827" d="M84 310.5q0 138.5 99.5 235.5t234.5 97t234.5 -99.5t99.5 -234.5t-98.5 -234.5t-236.5 -99.5t-235.5 98.5t-97.5 237z" />
<glyph unicode="&#x2026;" horiz-adv-x="858" d="M98 -92q0 55 27 95t79 40t52 -25q0 6 -137 -131q-20 0 -21 21zM387 -92q0 53 26.5 94t63.5 41q68 0 68 -25q0 8 -139 -131q-18 0 -19 21zM666 -92q0 55 26.5 95t78.5 40t52 -25q0 10 -137 -131q-20 0 -20 21z" />
<glyph unicode="&#x202f;" horiz-adv-x="307" />
<glyph unicode="&#x2039;" horiz-adv-x="491" d="M131 340q0 23 96.5 155t114.5 132q10 -1 10 -11q0 -27 -151 -235q150 -186 149.5 -205.5t-12.5 -19.5h-2l-14 6q-37 55 -187 168q-4 4 -4 10z" />
<glyph unicode="&#x203a;" horiz-adv-x="491" d="M131 154q0 23 154 235q-152 193 -152 209t12 16h5l12 -4q39 -55 186 -170q4 -2 4 -8q0 -25 -98 -157t-115 -132q-8 0 -8 11z" />
<glyph unicode="&#x205f;" horiz-adv-x="384" />
<glyph unicode="&#x20ac;" horiz-adv-x="933" d="M29 408q66 -4 84 -5q4 8 41 89q-61 53 -62 88q1 14 17 14l41 -4q61 0 67 6q268 299 535 299q51 0 91 -38t40 -91q0 -6 -5.5 -12t-9.5 -6q-2 2 -2 4v10q0 51 -101 51t-221 -58.5t-204 -144.5q0 -2 2 -4h227l207 21q20 0 20.5 -4.5t-8.5 -8.5q-170 -72 -237.5 -88 t-302.5 -34q-20 -20 -58 -86q2 -2 37 -3l416 19h8q12 0 13 -6q-2 -2 -7 -4q-178 -82 -507 -121q-20 -61 -21 -113q0 -90 73.5 -129t237.5 -39q86 0 259 74t247 139q10 0 12 -2q0 -6 -2 -12q-242 -283 -569 -283q-303 0 -303 350q0 14 -12 15h-2q-20 0 -33 26v15q0 33 -8 76z " />
<glyph unicode="&#x2122;" horiz-adv-x="1011" d="M41 891q8 10 177 28.5t269 18.5q33 0 33 -14q0 -18 -72.5 -26.5t-96 -12.5t-43 -14.5t-29 -18.5t-18.5 -31.5t-14 -42t-15.5 -60.5t-36 -127t-42 -117t-44 -32t-27.5 21l151 401q0 15 -43 15l-108 -7q-35 0 -41 19zM393.5 463q-0.5 12 46.5 125.5t67.5 196.5t29 110 t28.5 27q8 0 21 -35q31 -199 43 -230.5t20 -50.5q16 -33 47 -33q45 0 151.5 167t113.5 167q16 0 16 -30q0 -37 -19 -121v-39q0 -248 -75 -248q-16 0 -17 14q37 211 49 269q-158 -209 -233 -209q-82 0 -139 209q-14 -31 -36 -113t-44.5 -135t-52.5 -53q-16 0 -16.5 12z" />
<glyph unicode="&#x25fc;" horiz-adv-x="583" d="M0 0v584h584v-584h-584z" />
</font>
</defs>
</svg>
