<?xml version="1.0" standalone="no"?>
<!DOCTYPE svg PUBLIC "-//W3C//DTD SVG 1.1//EN" "http://www.w3.org/Graphics/SVG/1.1/DTD/svg11.dtd" >
<svg xmlns="http://www.w3.org/2000/svg">
<metadata></metadata>
<defs>
<font id="titillium_websemibold" horiz-adv-x="1146" >
<font-face units-per-em="2048" ascent="1638" descent="-410" />
<missing-glyph horiz-adv-x="450" />
<glyph horiz-adv-x="2048" />
<glyph horiz-adv-x="2048" />
<glyph unicode="&#xd;" horiz-adv-x="681" />
<glyph unicode=" "  horiz-adv-x="450" />
<glyph unicode="&#x09;" horiz-adv-x="450" />
<glyph unicode="&#xa0;" horiz-adv-x="450" />
<glyph unicode="!" horiz-adv-x="544" d="M152 0v287h239v-287h-239zM154 1403h237l-20 -909h-197z" />
<glyph unicode="&#x22;" horiz-adv-x="808" d="M123 1403h217l-12 -475h-197zM471 1403h215l-12 -475h-195z" />
<glyph unicode="#" d="M41 328v186h209v311h-209v187h209v346h194v-346h258v346h195v-346h209v-187h-209v-311h209v-186h-209v-328h-195v328h-258v-328h-194v328h-209zM444 514h258v311h-258v-311z" />
<glyph unicode="$" d="M121 1005.5q0 180.5 119.5 274.5t330.5 94h37l35 275h131l-37 -285l262 -37l-18 -176q-145 16 -266 25l-51 -396q207 -59 286.5 -137t79.5 -242q0 -213 -122 -318.5t-330 -105.5h-17l-29 -237q-131 6 -131 14l29 232q-131 12 -254 37l-41 8l23 176q162 -23 297 -31 l55 424q-213 57 -301 141t-88 264.5zM340 1006q0 -76 42 -115t155 -76l47 367q-244 -4 -244 -176zM586 172q223 8 223 217q0 70 -38 109t-134 67z" />
<glyph unicode="%" d="M41 1083q0 291 236.5 291t236.5 -291q0 -147 -61.5 -221t-175 -74t-175 74t-61.5 221zM209 1083q0 -82 15.5 -118.5t54 -36.5t54 36.5t15.5 118.5t-15.5 118t-54 36t-54 -36t-15.5 -118zM283 -12l454 1427l127 -43l-454 -1425zM633 272q0 291 236.5 291t236.5 -291 q0 -147 -61.5 -221t-175 -74t-175 74t-61.5 221zM799 271q0 -81 15 -118.5t54 -37.5t54.5 36.5t15.5 119.5t-14.5 118t-54.5 35t-55 -36t-15 -117z" />
<glyph unicode="&#x26;" horiz-adv-x="1425" d="M78 408q0 170 71.5 263t231.5 152q-80 92 -104.5 155.5t-24.5 164.5q0 141 105.5 223t292 82t286.5 -83t100 -229.5t-65.5 -230.5t-231.5 -180l250 -248q14 39 28.5 134.5t18.5 158.5l215 -4q-29 -250 -100 -420l244 -223l-127 -146l-232 201q-68 -94 -180.5 -147.5 t-247.5 -53.5q-289 0 -409.5 109t-120.5 322zM303 426q0 -250 281 -250q98 0 180 34t121 93l-387 387q-102 -39 -148.5 -100.5t-46.5 -163.5zM477 1098q0 -100 92 -199l45 -47q109 61 153 114.5t44 137.5q0 156 -167 156t-167 -162z" />
<glyph unicode="'" horiz-adv-x="460" d="M125 1403h217l-14 -475h-197z" />
<glyph unicode="(" horiz-adv-x="591" d="M88 655q0 170 57.5 399.5t114.5 354.5l57 127h211q-70 -176 -132 -458.5t-62 -461t48 -396.5t97 -347l49 -129h-211q-29 47 -73.5 156.5t-75.5 207t-55.5 237.5t-24.5 310z" />
<glyph unicode=")" horiz-adv-x="591" d="M63 -256q23 53 55 142t86 320.5t54 410t-48 408.5t-97 372l-50 139h211q29 -53 74 -172t76 -222.5t55.5 -248.5t24.5 -276.5t-23.5 -269.5t-58.5 -241q-70 -217 -123 -319l-25 -43h-211z" />
<glyph unicode="*" horiz-adv-x="866" d="M94 938l219 162l-213 151l80 111l211 -154l82 252l131 -43l-80 -254h258v-131h-260l80 -250l-127 -39l-84 252l-215 -161z" />
<glyph unicode="+" d="M106 414v200h365v367h201v-367h368v-200h-368v-371h-201v371h-365z" />
<glyph unicode="," horiz-adv-x="503" d="M53 -252l99 506h245l-164 -506h-180z" />
<glyph unicode="-" horiz-adv-x="862" d="M125 451v202h612v-202h-612z" />
<glyph unicode="." horiz-adv-x="489" d="M125 0v295h240v-295h-240z" />
<glyph unicode="/" horiz-adv-x="907" d="M66 18l583 1444l197 -71l-586 -1442z" />
<glyph unicode="0" d="M61 666.5q0 377.5 128 542.5t384 165t383 -163.5t127 -541.5t-128 -535t-383 -157t-383 156t-128 533.5zM297 671.5q0 -280.5 66.5 -388t211 -107.5t209 107.5t64.5 388t-63.5 392.5t-211 112t-212 -112t-64.5 -392.5z" />
<glyph unicode="1" d="M180 1059l441 293h208v-1352h-227v1094l-317 -205z" />
<glyph unicode="2" d="M137 0v195l334 344q152 156 213 243.5t61 193t-59 150.5t-194 45q-127 0 -281 -28l-51 -8l-15 180q199 59 412 59q424 0 424 -377q0 -147 -64.5 -255.5t-230.5 -262.5l-289 -280h611v-199h-871z" />
<glyph unicode="3" d="M121 41l14 176q225 -41 397 -41q246 2 246 217q0 98 -63.5 149.5t-167.5 53.5h-273v190h273q76 0 140.5 62.5t64.5 152t-56.5 132.5t-154.5 43q-162 0 -334 -29l-53 -10l-19 172q190 66 417.5 65.5t331 -87.5t103.5 -275q0 -82 -31.5 -147.5t-64.5 -95.5t-82 -62 q109 -51 157 -111.5t48 -196.5q0 -215 -107.5 -318.5t-343.5 -103.5q-92 0 -202.5 15.5t-176.5 32.5z" />
<glyph unicode="4" d="M82 242v174l356 936h252l-377 -912h377v398h230v-398h147v-198h-147v-242h-230v242h-608z" />
<glyph unicode="5" d="M115 47l24 172q242 -41 414 -41q119 0 184.5 65.5t65.5 186.5t-57.5 174t-149.5 53q-166 0 -270 -41l-37 -14l-144 31l37 719h809v-201h-626l-35 -356q139 63 274 63q434 0 434 -405q0 -229 -119.5 -352.5t-338.5 -123.5q-92 0 -209 17.5t-187 34.5z" />
<glyph unicode="6" d="M84 676q0 698 549 698q154 0 332 -37l59 -12l-20 -178q-199 29 -361 29t-241.5 -100.5t-82.5 -280.5l48 16q147 47 247 47q459 0 459 -430q0 -221 -127 -336t-370.5 -115t-367.5 181.5t-124 517.5zM317 598q4 -422 271 -422q121 0 185.5 65.5t64.5 182.5t-63.5 175 t-177.5 58t-241 -45z" />
<glyph unicode="7" d="M150 1147v205h851v-271l-497 -1104l-213 62l481 1046v62h-622z" />
<glyph unicode="8" d="M61 344q0 137 47.5 211t149.5 145q-96 63 -135 132t-39 184q0 172 130 265t355.5 93t359.5 -93t134 -267q0 -123 -38 -185.5t-142 -128.5q104 -68 152 -138t48 -195q0 -205 -141 -297.5t-373 -92.5q-508 0 -508 367zM305 393q0 -211 267.5 -211t267.5 215q0 141 -172 195 h-197q-166 -54 -166 -199zM328 981q0 -123 143 -195h197q151 72 151 195q0 188 -245.5 188t-245.5 -188z" />
<glyph unicode="9" d="M70 922q0 211 130 331.5t353 120.5q256 0 381 -182t125 -538.5t-140.5 -516.5t-410.5 -160q-154 0 -332 37l-59 13l20 178q199 -29 371 -29q311 0 315 393l-49 -16q-156 -53 -250 -53q-221 0 -337.5 105.5t-116.5 316.5zM305 924q0 -224 238 -224q117 0 239 45l43 15 q-4 416 -272 416q-117 0 -182.5 -68t-65.5 -184z" />
<glyph unicode=":" horiz-adv-x="489" d="M125 0v295h240v-295h-240zM125 621v294h240v-294h-240z" />
<glyph unicode=";" horiz-adv-x="544" d="M74 -252l98 506h246l-164 -506h-180zM158 621v294h239v-294h-239z" />
<glyph unicode="&#x3c;" d="M131 422v184l840 393v-227l-602 -254l602 -266v-229z" />
<glyph unicode="=" d="M125 211v201h897v-201h-897zM125 616v201h897v-201h-897z" />
<glyph unicode="&#x3e;" d="M176 23v229l602 266l-602 254v227l840 -393v-184z" />
<glyph unicode="?" horiz-adv-x="903" d="M68 1358q190 68 346 67q215 0 316 -78.5t101 -252.5q0 -137 -33.5 -209t-138 -154t-138.5 -130t-34 -103v-68h-180q-49 63 -49 160q0 51 39 102t139.5 134t133 129t32.5 122q0 150 -217 150q-123 0 -258 -29l-47 -10zM272 0v287h238v-287h-238z" />
<glyph unicode="@" horiz-adv-x="1996" d="M90 535q0 481 247 716.5t695 235.5q891 0 891 -862v-21q0 -338 -94 -474t-285 -136q-92 0 -156.5 29.5t-82.5 58.5l-19 31q-180 -117 -343 -117t-260 113.5t-97 389t90 402.5t311 127q82 0 176 -37l33 -14v29h221v-377q0 -311 21 -379q6 -25 22.5 -43.5t33.5 -22.5t60 -4 t76 29q70 63 70 395v23q0 350 -159 507.5t-513 157.5t-535.5 -190.5t-181.5 -582.5t167 -569t552 -177l293 18l10 -194q-188 -18 -303 -19q-236 0 -403.5 46t-290.5 155q-246 215 -246 756zM811 508q0 -318 166 -318q86 0 233 70q-14 82 -14 277v266q-102 31 -164 31 q-131 0 -176 -75t-45 -251z" />
<glyph unicode="A" horiz-adv-x="1226" d="M41 0l346 1403h453l348 -1403h-230l-75 301h-539l-76 -301h-227zM389 502h449l-172 710h-103z" />
<glyph unicode="B" horiz-adv-x="1253" d="M162 0v1403h532q215 0 321.5 -87t106.5 -278q0 -125 -40 -196.5t-126 -118.5q201 -78 201 -326q0 -397 -446 -397h-549zM389 197h309q113 0 169.5 47t56.5 161.5t-66 160.5t-164 46h-305v-415zM389 805h301q201 0 201 207q0 194 -209 194h-293v-401z" />
<glyph unicode="C" horiz-adv-x="1114" d="M106 706.5q0 389.5 111 554t416 164.5q182 0 401 -51l-8 -184q-184 33 -368.5 33t-250 -109.5t-65.5 -412t63.5 -412t248 -109.5t372.5 31l6 -188q-211 -46 -399 -46q-307 0 -417 170t-110 559.5z" />
<glyph unicode="D" horiz-adv-x="1312" d="M162 0v1403h485q324 0 442.5 -164t118.5 -514q0 -178 -23.5 -302t-82.5 -224q-117 -199 -455 -199h-485zM389 201h258q203 0 271 149q33 76 44 162t11 213q0 254 -63.5 366.5t-262.5 112.5h-258v-1003z" />
<glyph unicode="E" horiz-adv-x="1132" d="M162 0v1403h885v-199h-658v-397h535v-197h-535v-409h658v-201h-885z" />
<glyph unicode="F" horiz-adv-x="1083" d="M162 0v1403h870v-199h-643v-473h535v-199h-535v-532h-227z" />
<glyph unicode="G" horiz-adv-x="1255" d="M102 705.5q0 375.5 124 547.5t429 172q180 0 406 -41l72 -14l-9 -180q-248 33 -444.5 33t-269 -111t-72.5 -410t68.5 -412.5t277.5 -113.5q150 0 223 19v342h-174v200h400v-712q-55 -14 -224.5 -31t-244.5 -17q-319 0 -440.5 176.5t-121.5 552z" />
<glyph unicode="H" horiz-adv-x="1384" d="M162 0v1403h227v-598h606v598h230v-1403h-230v606h-606v-606h-227z" />
<glyph unicode="I" horiz-adv-x="550" d="M162 0v1403h227v-1403h-227z" />
<glyph unicode="J" horiz-adv-x="606" d="M39 55q109 0 148.5 33t39.5 145v1170h226l2 -1186q0 -219 -92.5 -290.5t-323.5 -71.5v200z" />
<glyph unicode="K" horiz-adv-x="1193" d="M162 0v1403h227v-633l209 16l287 617h260l-346 -705l360 -698h-264l-297 586l-209 -15v-571h-227z" />
<glyph unicode="L" horiz-adv-x="972" d="M162 0v1403h227v-1200h559v-203h-786z" />
<glyph unicode="M" horiz-adv-x="1740" d="M162 0v1403h395l313 -1096l314 1096h397v-1403h-229v1151h-31l-332 -1094h-237l-332 1094h-31v-1151h-227z" />
<glyph unicode="N" horiz-adv-x="1404" d="M162 0v1403h397l426 -1202h31v1202h227v-1403h-389l-436 1204h-29v-1204h-227z" />
<glyph unicode="O" horiz-adv-x="1343" d="M100 694.5q0 370.5 128 550.5t443.5 180t442.5 -179t127 -551.5t-126 -545t-443.5 -172.5t-444.5 173.5t-127 544zM336 695.5q0 -277.5 69.5 -398.5t266 -121t265.5 119t69 398.5t-71 406.5t-263.5 127t-264 -127t-71.5 -404.5z" />
<glyph unicode="P" horiz-adv-x="1210" d="M162 0v1403h514q477 0 477 -471q0 -242 -119.5 -369t-357.5 -127h-287v-436h-227zM389 633h285q246 0 246 299q0 143 -59.5 208.5t-186.5 65.5h-285v-573z" />
<glyph unicode="Q" horiz-adv-x="1343" d="M100 693.5q0 371.5 128 551.5t443.5 180t442.5 -179t127 -552q0 -246 -52 -397.5t-171 -230.5l172 -277l-211 -98l-182 299q-39 -13 -125 -13q-319 0 -445.5 172.5t-126.5 544zM336 694.5q0 -278.5 69.5 -398.5t266 -120t265.5 118t69 398.5t-71 407.5t-263.5 127 t-264 -127t-71.5 -405.5z" />
<glyph unicode="R" horiz-adv-x="1265" d="M162 0v1403h532q475 0 475 -447q0 -299 -229 -405l231 -551h-249l-203 500h-330v-500h-227zM389 696h309q123 0 180.5 70.5t57.5 187.5q0 252 -242 252h-305v-510z" />
<glyph unicode="S" horiz-adv-x="1112" d="M86 1042.5q0 190.5 124 287.5t343 97q158 0 373 -36l71 -13l-18 -184q-287 33 -406 33q-260 0 -260 -183q0 -94 61.5 -134t271.5 -98t296 -139t86 -255q0 -221 -126 -331t-343 -110q-174 0 -385 41l-74 15l23 182q276 -37 422 -37q254 0 254 225q0 88 -57.5 130 t-258 92.5t-299 138.5t-98.5 278.5z" />
<glyph unicode="T" horiz-adv-x="1077" d="M27 1200v203h1024v-203h-396v-1200h-229v1200h-399z" />
<glyph unicode="U" horiz-adv-x="1331" d="M150 453v950h229v-954q1 -273 287 -273h1q285 0 285 273v954h230v-950q0 -248 -130 -362t-387 -114t-386 114t-129 362z" />
<glyph unicode="V" horiz-adv-x="1216" d="M41 1403h238l278 -1202h102l279 1202h238l-345 -1403h-446z" />
<glyph unicode="W" horiz-adv-x="1865" d="M49 1403h240l200 -1206h43l267 1202h266l266 -1202h45l201 1206h240l-277 -1403h-366l-242 1124l-240 -1124h-368z" />
<glyph unicode="X" horiz-adv-x="1155" d="M27 0l417 678l-417 725h256l301 -553l305 553h239l-415 -713l415 -690h-254l-301 528l-307 -528h-239z" />
<glyph unicode="Y" horiz-adv-x="1124" d="M8 1403h256l297 -602l299 602h254l-436 -825v-578h-229v578z" />
<glyph unicode="Z" horiz-adv-x="1093" d="M86 0v217l649 946v41h-649v199h922v-219l-652 -946v-39h652v-199h-922z" />
<glyph unicode="[" horiz-adv-x="704" d="M150 -252v1786h477v-199h-252v-1388h252v-199h-477z" />
<glyph unicode="\" horiz-adv-x="964" d="M63 1372l193 86l645 -1431l-194 -82z" />
<glyph unicode="]" horiz-adv-x="704" d="M78 -53h252v1388h-252v199h477v-1786h-477v199z" />
<glyph unicode="^" d="M76 647l389 705h192l396 -705h-234l-254 488l-256 -488h-233z" />
<glyph unicode="_" horiz-adv-x="1280" d="M203 -166h876v-190h-876v190z" />
<glyph unicode="`" horiz-adv-x="520" d="M-20 1339l69 193l483 -207l-53 -145z" />
<glyph unicode="a" horiz-adv-x="1038" d="M70 303q0 156 83 225.5t255 83.5l264 23v74q0 82 -36 114.5t-106 32.5q-131 0 -327 -16l-66 -4l-8 157q223 53 411 53q1 0 2 1q186 0 268 -81q83 -81 83 -257v-467q2 -45 23.5 -66.5t66.5 -28.5l-6 -170q-176 0 -272 76q-164 -76 -330 -76q-305 0 -305 326zM293 301.5 q0 -141.5 125 -141.5q102 0 217 33l37 12v272l-238 -22q-141 -12 -141 -153.5z" />
<glyph unicode="b" horiz-adv-x="1097" d="M135 2v1448h221v-465q141 62 256 62q211 0 304.5 -118t93.5 -417t-111 -417t-389 -118q-96 0 -305 19zM356 184q113 -8 154 -8q164 0 218 77t54 261t-46 259t-150 75q-98 0 -197 -31l-33 -10v-623z" />
<glyph unicode="c" horiz-adv-x="905" d="M90 516q0 287 100.5 409t327.5 122q109 0 256 -29l51 -10l-8 -177q-162 16 -239 17q-156 0 -209.5 -69.5t-53.5 -262t51.5 -266.5t213.5 -74l239 17l6 -179q-207 -37 -311 -37q-233 0 -328.5 126t-95.5 413z" />
<glyph unicode="d" horiz-adv-x="1105" d="M88 503.5q0 284.5 103.5 414t322.5 129.5q74 0 234 -27v430h223v-1450h-221v53q-150 -76 -275 -76q-201 0 -294 121t-93 405.5zM313 510q0 -188 48.5 -261t153 -73t198.5 37l35 14v607q-123 20 -228 20q-207 0 -207 -344z" />
<glyph unicode="e" horiz-adv-x="1040" d="M86 502q0 545 444 545q430 0 431 -469l-15 -160h-635q2 -127 55.5 -186.5t198.5 -59.5t299 12l58 6l4 -165q-233 -47 -414 -48q-227 0 -326.5 125t-99.5 400zM309 590h432q0 152 -48 212t-162.5 60t-167 -63.5t-54.5 -208.5z" />
<glyph unicode="f" horiz-adv-x="708" d="M63 834v190h119v66q0 219 63.5 301t225.5 82l221 -21l-2 -182q-100 4 -166.5 4t-93.5 -40t-27 -147v-63h271v-190h-271v-834h-221v834h-119z" />
<glyph unicode="g" horiz-adv-x="1075" d="M86 -180q0 76 37 130t119 118q-68 45 -68 149q0 41 55 133l19 31q-147 88 -148 307q0 184 111 270t299 86q90 0 178 -20l31 -6l317 8v-180l-170 10q55 -72 56 -168q0 -201 -101.5 -277.5t-316.5 -76.5q-53 0 -90 8q-29 -70 -29 -107.5t38 -52t183 -16.5q244 -2 334 -65.5 t90 -239.5q0 -336 -485 -336q-233 0 -346 63.5t-113 231.5zM305 -160q0 -72 57.5 -102.5t196.5 -30.5q248 0 248 141q0 80 -44 101.5t-175 23.5l-201 13q-45 -37 -63.5 -69t-18.5 -77zM322 688q0 -94 45 -138t145 -44t144 44t44 138t-45 138t-145 44q-188 0 -188 -182z" />
<glyph unicode="h" horiz-adv-x="1118" d="M135 0v1450h223v-479q152 76 281 76q205 0 279.5 -116t74.5 -382v-549h-223v543q0 166 -35 235.5t-147 69.5q-98 0 -197 -33l-33 -12v-803h-223z" />
<glyph unicode="i" horiz-adv-x="493" d="M135 0v1024h223v-1024h-223zM135 1198v236h223v-236h-223z" />
<glyph unicode="j" horiz-adv-x="495" d="M-84 -299q143 90 182 146.5t39 191.5v985h221v-987q0 -201 -70.5 -297t-283.5 -205zM137 1198v236h221v-236h-221z" />
<glyph unicode="k" horiz-adv-x="1021" d="M135 0v1450h223v-838l127 13l242 399h250l-295 -479l311 -545h-252l-249 432l-134 -14v-418h-223z" />
<glyph unicode="l" horiz-adv-x="518" d="M147 0v1450h224v-1450h-224z" />
<glyph unicode="m" horiz-adv-x="1716" d="M135 0v1024h221v-63q145 86 267 86q178 0 260 -101q187 100 371 100q1 0 1 1q183 0 259 -114t75 -384v-549h-221v543q0 166 -34 235.5t-140 69.5q-92 0 -199 -41l-34 -14q16 -41 16 -263v-530h-221v526q0 182 -33 252t-143 70q-102 0 -191 -41l-31 -12v-795h-223z" />
<glyph unicode="n" horiz-adv-x="1118" d="M135 0v1024h221v-63q150 86 283 86q205 0 279.5 -116t74.5 -382v-549h-221v543q0 166 -36 235.5t-146 69.5q-104 0 -201 -41l-31 -12v-795h-223z" />
<glyph unicode="o" horiz-adv-x="1085" d="M86 514q0 266 105.5 399.5t351 133.5t351 -133.5t105.5 -399.5t-102 -401.5t-354 -135.5t-354.5 135.5t-102.5 401.5zM311 516q0 -186 47.5 -268t184.5 -82t184 82t47 268t-50 264t-181 78t-181.5 -78t-50.5 -264z" />
<glyph unicode="p" horiz-adv-x="1099" d="M135 -440v1464h221v-63q141 86 265 86q203 0 297 -124t94 -416t-107.5 -411t-351.5 -119q-84 0 -195 19v-436h-223zM358 186q82 -16 181 -16q139 0 192 80t53 275q0 323 -202 323q-96 0 -193 -43l-31 -14v-605z" />
<glyph unicode="q" horiz-adv-x="1095" d="M88 513q0 298 111.5 416t386.5 118q100 0 307 -19l68 -6v-1462h-222v479q-137 -62 -250 -62q-211 0 -306 119t-95 417zM311 510q0 -182 50.5 -258t154.5 -76q96 0 193 31l30 10v629q-98 8 -153 8q-162 0 -218.5 -81t-56.5 -263z" />
<glyph unicode="r" horiz-adv-x="739" d="M135 0v1024h221v-123q174 113 349 146v-224q-176 -35 -302 -90l-45 -18v-715h-223z" />
<glyph unicode="s" horiz-adv-x="960" d="M82 731q0 158 107.5 235.5t275.5 77.5q131 0 321 -32l64 -13l-4 -186q-242 33 -350.5 33t-150.5 -25.5t-42 -81t46 -78t217 -52t243 -93t72 -225.5t-103.5 -238t-302.5 -76q-125 0 -315 35l-64 11l8 186q246 -33 354.5 -33t154.5 26.5t46 88t-44 85t-210.5 51.5 t-244.5 87t-78 217z" />
<glyph unicode="t" horiz-adv-x="733" d="M51 834v190h131v297h221v-297h283v-190h-283v-451q0 -125 18.5 -166t94.5 -41l168 6l10 -178q-137 -27 -209 -27q-174 0 -238.5 80t-64.5 301v476h-131z" />
<glyph unicode="u" horiz-adv-x="1112" d="M125 489v535h223v-537q0 -184 31 -247.5t143 -63.5q111 0 203 41l31 12v795h221v-1024h-221v63q-150 -86 -277 -86q-211 0 -282.5 114t-71.5 398z" />
<glyph unicode="v" horiz-adv-x="1005" d="M39 1024h233l197 -834h66l204 834h228l-267 -1024h-397z" />
<glyph unicode="w" horiz-adv-x="1572" d="M55 1024h219l162 -834h41l195 814h229l195 -814h41l159 834h222l-218 -1024h-354l-160 702l-159 -702h-355z" />
<glyph unicode="x" horiz-adv-x="950" d="M37 0l297 514l-297 510h237l201 -354l203 354h237l-305 -504l305 -520h-237l-203 350l-201 -350h-237z" />
<glyph unicode="y" horiz-adv-x="1007" d="M41 1024h219l217 -834h55l218 834h221l-389 -1464h-220l123 440h-176z" />
<glyph unicode="z" horiz-adv-x="929" d="M84 0v199l494 626h-494v199h760v-199l-492 -626h492v-199h-760z" />
<glyph unicode="{" horiz-adv-x="731" d="M39 553v174q117 27 171 77t54 130l-14 260q0 193 91 271.5t312 86.5l2 -188q-109 -8 -148.5 -53t-39.5 -133l14 -256q0 -129 -43 -186.5t-180 -94.5q135 -35 179 -97.5t44 -193.5l-14 -239q0 -88 39 -136.5t145 -54.5v-188q-219 8 -310 89t-91 265l14 248q0 158 -225 219 z" />
<glyph unicode="|" horiz-adv-x="516" d="M147 -440v1890h222v-1890h-222z" />
<glyph unicode="}" horiz-adv-x="731" d="M76 1364l2 188q221 -8 312 -87t91 -271l-14 -260q0 -80 54 -130t171 -77v-174q-225 -61 -225 -219l14 -248q0 -184 -91 -265t-310 -89v188q106 6 145 54.5t39 136.5l-14 239q0 131 44 193.5t179 97.5q-137 37 -180 94.5t-43 186.5l14 256q0 88 -40 133t-148 53z" />
<glyph unicode="~" d="M131 569q127 106 246 107q57 0 210.5 -52.5t194.5 -52.5q72 0 181 64l34 20l19 -178q-37 -37 -107.5 -71.5t-127 -34.5t-215 52t-197.5 52t-93.5 -21.5t-89.5 -43.5l-34 -21z" />
<glyph unicode="&#xa1;" horiz-adv-x="507" d="M135 -379l21 909h196l21 -909h-238zM135 737v287h240v-287h-240z" />
<glyph unicode="&#xa2;" d="M190 510q0 422 369 448v222h186v-230l181 -24l-6 -170q-162 10 -250 10q-139 0 -195.5 -59.5t-56.5 -197.5t56 -194.5t202 -56.5l246 10l6 -170q-98 -20 -183 -24v-234h-184v226q-186 10 -278.5 114.5t-92.5 329.5z" />
<glyph unicode="&#xa3;" d="M158 0v190h161v492h-135v190h135v117q0 223 76 303t248 80q121 0 254 -31l43 -10l-6 -176q-150 18 -243 18.5t-122.5 -41.5t-29.5 -153v-107h327v-190h-327v-492h280l148 33l34 -186l-165 -37h-678z" />
<glyph unicode="&#xa4;" d="M86 182l147 146q-49 82 -49 184t49 190l-147 148l154 154l145 -148q88 49 187.5 49t187.5 -49l147 148l154 -154l-148 -148q49 -88 49.5 -187t-49.5 -187l148 -146l-154 -153l-147 147q-88 -49 -187.5 -49t-187.5 49l-145 -147zM373 516q0 -82 59.5 -141.5t141 -59.5 t141 59.5t59.5 141.5t-59.5 141.5t-141 59.5t-141 -59.5t-59.5 -141.5z" />
<glyph unicode="&#xa5;" d="M27 1352h254l294 -484l293 484h254l-319 -547h225v-189h-330l-8 -36v-93h338v-188h-338v-299h-227v299h-344v188h344v93l-6 36h-338v189h229z" />
<glyph unicode="&#xa6;" horiz-adv-x="524" d="M152 336h221v-776h-221v776zM152 686v764h221v-764h-221z" />
<glyph unicode="&#xa7;" horiz-adv-x="1042" d="M88 473q0 74 42 154t85 114q-90 66 -90 224q0 354 422 354q135 0 293 -33l57 -10l-10 -182q-227 33 -339 32.5t-160 -36t-48 -112.5t59.5 -107.5t233.5 -68.5t242.5 -97.5t68.5 -204t-96 -277.5q76 -66 76 -235q0 -342 -420 -342q-111 0 -311 32l-62 11l23 180 q221 -31 333 -31q223 0 224 154q0 72 -51.5 98.5t-143.5 47t-96 22.5q-182 41 -257 105.5t-75 207.5zM311 515q0 -75 36 -104.5t146.5 -55t182.5 -52.5q12 16 27.5 68.5t15.5 110t-41 87t-174.5 62.5t-141.5 35q-51 -76 -51 -151z" />
<glyph unicode="&#xa8;" horiz-adv-x="520" d="M-45 1243v234h213v-234h-213zM383 1243v234h213v-234h-213z" />
<glyph unicode="&#xa9;" horiz-adv-x="1318" d="M106 891q0 244 157 406.5t399.5 162.5t396 -166t153.5 -408.5t-153.5 -405.5t-396 -163t-399.5 165t-157 409zM217 888.5q0 -192.5 126 -327.5t315.5 -135t316.5 134t127 327.5t-128 330t-315.5 136.5t-314.5 -136.5t-127 -329zM420 889q0 182 59.5 256t198.5 74 q78 0 162 -27l-13 -148q-74 14 -134 14.5t-79.5 -35.5t-19.5 -129t20.5 -134t73.5 -41l139 12l13 -141q-66 -33 -185.5 -33t-177 75t-57.5 257z" />
<glyph unicode="&#xaa;" horiz-adv-x="825" d="M96 891q0 180 234 192l155 9v47q0 53 -94 53l-254 -14l-6 129q143 43 276.5 43t201 -48.5t67.5 -173.5v-284q16 -20 47 -25l-4 -139q-113 0 -155 14.5t-66 46.5q-98 -59 -196.5 -59t-152 56.5t-53.5 152.5zM288.5 894q0.5 -63 67.5 -63q51 0 111 25l18 8v107l-123 -8 q-74 -6 -73.5 -69z" />
<glyph unicode="&#xab;" horiz-adv-x="1175" d="M86 418v166l428 317v-225l-238 -170l238 -193v-227zM625 418v166l428 317v-225l-238 -170l238 -193v-227z" />
<glyph unicode="&#xac;" d="M125 520v199h885v-494h-201v295h-684z" />
<glyph unicode="&#xad;" horiz-adv-x="862" d="M125 451v202h612v-202h-612z" />
<glyph unicode="&#xae;" horiz-adv-x="1318" d="M106 891q0 244 157 406.5t399.5 162.5t396 -166t153.5 -408.5t-153.5 -405.5t-395 -163t-399.5 165t-158 409zM217 888.5q0 -192.5 128 -327.5t316.5 -135t314.5 134t126 327.5t-128 330t-315.5 136.5t-314.5 -136.5t-127 -329zM422 571v633h256q233 0 233 -205 q0 -78 -19.5 -121.5t-70.5 -76.5l99 -230h-172l-76 203h-86v-203h-164zM584 897h84q86 0 86 91t-97 91h-73v-182z" />
<glyph unicode="&#xaf;" horiz-adv-x="520" d="M-18 1247v168h577v-168h-577z" />
<glyph unicode="&#xb0;" d="M274 1126.5q0 133.5 83 216t216.5 82.5t216 -82.5t82.5 -216t-82.5 -215.5t-216 -82t-216.5 82t-83 215.5zM406 1126.5q0 -75.5 46 -123t121.5 -47.5t123.5 47.5t48 123t-48 123.5t-123.5 48t-121.5 -48t-46 -123.5z" />
<glyph unicode="&#xb1;" d="M106 55v201h934v-201h-934zM106 573v201h365v236h201v-236h368v-201h-368v-229h-201v229h-365z" />
<glyph unicode="&#xb2;" horiz-adv-x="573" d="M51 979v154l162 145q98 84 98 139q0 51 -86 51l-162 -14l-8 164q137 20 241.5 20t154 -46t49.5 -132t-27 -134t-92 -99l-100 -86h223v-162h-453z" />
<glyph unicode="&#xb3;" horiz-adv-x="573" d="M49 975l12 158q121 -14 198 -14.5t77 57.5q0 53 -72 53h-135v147h133q25 0 41 14.5t16 39.5q0 49 -71 49l-178 -13l-13 154q133 18 217 18q233 0 234 -176q0 -109 -70 -147q84 -33 84 -154q0 -203 -231 -203z" />
<glyph unicode="&#xb4;" horiz-adv-x="548" d="M29 1325l483 207l70 -193l-500 -159z" />
<glyph unicode="&#xb5;" d="M147 -440v1464h224v-586q2 -152 34.5 -207t139.5 -55q111 0 203 41l30 12v795h221v-1024h-221v63q-150 -86 -276 -86q-80 0 -131 15v-432h-224z" />
<glyph unicode="&#xb6;" horiz-adv-x="1220" d="M63 1010q0 172 108 282.5t278 110.5h675v-191h-106v-1212h-193v1212h-174v-1212h-192v621h-15q-168 0 -274.5 108.5t-106.5 280.5z" />
<glyph unicode="&#xb7;" horiz-adv-x="489" d="M125 397v295h240v-295h-240z" />
<glyph unicode="&#xb8;" horiz-adv-x="540" d="M72 -453l8 134q70 -4 113 -5q84 0 83 64q0 31 -19 43t-64 12h-64v207h96v-88q129 -2 186.5 -37t57.5 -139.5t-56.5 -157.5t-156.5 -53q-78 0 -158 14z" />
<glyph unicode="&#xb9;" horiz-adv-x="573" d="M39 1468l215 150h164v-639h-180v440l-115 -78z" />
<glyph unicode="&#xba;" horiz-adv-x="825" d="M94 1016q0 334 318.5 334t318.5 -334t-318.5 -334t-318.5 334zM293 1018q0 -84 27.5 -122t93 -38t90 37t24.5 123t-23.5 122t-90 36t-94 -37t-27.5 -121z" />
<glyph unicode="&#xbb;" horiz-adv-x="1177" d="M123 86v227l237 193l-237 170v225l428 -317v-166zM662 86v227l237 193l-237 170v225l428 -317v-166z" />
<glyph unicode="&#xbc;" horiz-adv-x="1110" d="M53 1468l215 150h164v-639h-180v440l-115 -78zM66 59l804 1293l97 -62l-805 -1296zM561 29l107 405h200l-125 -393h97l20 182h158v-182h37v-162h-37v-84h-178v84h-279v150z" />
<glyph unicode="&#xbd;" horiz-adv-x="1097" d="M57 1468l215 150h164v-639h-180v440l-115 -78zM63 59l805 1293l97 -62l-805 -1296zM573 -51l162 145q98 84 99 139q0 51 -86 52l-162 -15l-8 164q137 20 241.5 20.5t153.5 -46t49 -132.5t-26.5 -134t-92.5 -99l-100 -86h223v-162h-453v154z" />
<glyph unicode="&#xbe;" horiz-adv-x="1138" d="M84 975l12 158q121 -14 198 -14.5t77 57.5q0 53 -72 53h-135v147h133q25 0 41 14.5t16 39.5q0 49 -71 49l-179 -13l-12 154q133 18 217 18q233 0 234 -176q0 -109 -70 -147q84 -33 84 -154q0 -203 -231 -203zM96 59l805 1293l96 -62l-804 -1296zM594 29l106 405h201 l-125 -393h96l21 182h158v-182h36v-162h-36v-84h-179v84h-278v150z" />
<glyph unicode="&#xbf;" horiz-adv-x="894" d="M66 -70q0 137 33.5 209t138 154t138.5 130t34 103v68h180q49 -63 49 -160q0 -51 -39 -102t-139.5 -134t-133 -129t-32.5 -122q0 -150 217 -150q123 0 258 29l47 10l12 -170q-190 -68 -346 -67q-215 0 -316 78.5t-101 252.5zM387 737v287h238v-287h-238z" />
<glyph unicode="&#xc0;" horiz-adv-x="1226" d="M41 0l346 1403h453l348 -1403h-230l-75 301h-539l-76 -301h-227zM309 1724l72 199l483 -211l-57 -156zM389 502h449l-172 710h-103z" />
<glyph unicode="&#xc1;" horiz-adv-x="1226" d="M41 0l346 1403h453l348 -1403h-230l-75 301h-539l-76 -301h-227zM352 1712l484 211l71 -199l-497 -168zM389 502h449l-172 710h-103z" />
<glyph unicode="&#xc2;" horiz-adv-x="1226" d="M41 0l346 1403h453l348 -1403h-230l-75 301h-539l-76 -301h-227zM240 1589l274 293h193l274 -293h-238l-131 137l-133 -137h-239zM389 502h449l-172 710h-103z" />
<glyph unicode="&#xc3;" horiz-adv-x="1226" d="M41 0l346 1403h453l348 -1403h-230l-75 301h-539l-76 -301h-227zM229 1763q12 14 32 36t74 56.5t107.5 34.5t179.5 -51t148 -51q45 0 127 67l29 23l49 -162q-31 -43 -93.5 -84t-111.5 -41t-178 51.5t-156 51.5q-51 0 -131 -68l-26 -22zM389 502h449l-172 710h-103z" />
<glyph unicode="&#xc4;" horiz-adv-x="1226" d="M41 0l346 1403h453l348 -1403h-230l-75 301h-539l-76 -301h-227zM291 1604v233h213v-233h-213zM389 502h449l-172 710h-103zM719 1604v233h213v-233h-213z" />
<glyph unicode="&#xc5;" horiz-adv-x="1226" d="M41 0l336 1360q-43 59 -43 137q0 111 80 175.5t199.5 64.5t199.5 -64.5t80 -175.5q0 -78 -43 -137l338 -1360h-230l-75 301h-539l-76 -301h-227zM389 502h449l-172 710h-103zM489 1497q0 -45 33 -69.5t90.5 -24.5t91 24.5t33.5 69.5t-33.5 70.5t-91 25.5t-90.5 -25.5 t-33 -70.5z" />
<glyph unicode="&#xc6;" horiz-adv-x="1787" d="M31 0l413 1419h1254v-219h-656v-371h533v-215h-533v-395h656v-219h-881v291h-469l-86 -291h-231zM406 510h411l2 690h-213z" />
<glyph unicode="&#xc7;" horiz-adv-x="1114" d="M106 719q0 377 111 541.5t416 164.5q182 0 401 -51l-8 -184q-184 33 -368.5 33t-250 -109.5t-65.5 -412t63.5 -412t248 -109.5t372.5 31l6 -188q-188 -41 -381 -46v-63q129 -2 186.5 -37t57.5 -139.5t-56.5 -157.5t-156.5 -53q-78 0 -158 14l-26 6l8 134q70 -4 112 -5 q84 0 84 64q0 31 -19 43t-65 12h-63v187q-258 18 -353.5 189t-95.5 548z" />
<glyph unicode="&#xc8;" horiz-adv-x="1132" d="M162 0v1403h885v-199h-658v-397h535v-197h-535v-409h658v-201h-885zM311 1724l72 199l483 -211l-57 -156z" />
<glyph unicode="&#xc9;" horiz-adv-x="1132" d="M162 0v1403h885v-199h-658v-397h535v-197h-535v-409h658v-201h-885zM336 1712l483 211l72 -199l-498 -168z" />
<glyph unicode="&#xca;" horiz-adv-x="1132" d="M162 0v1403h885v-199h-658v-397h535v-197h-535v-409h658v-201h-885zM236 1589l274 293h192l275 -293h-238l-131 137l-133 -137h-239z" />
<glyph unicode="&#xcb;" horiz-adv-x="1132" d="M162 0v1403h885v-199h-658v-397h535v-197h-535v-409h658v-201h-885zM283 1604v233h213v-233h-213zM711 1604v233h213v-233h-213z" />
<glyph unicode="&#xcc;" horiz-adv-x="550" d="M-47 1724l72 199l483 -211l-57 -156zM162 0v1403h227v-1403h-227z" />
<glyph unicode="&#xcd;" horiz-adv-x="550" d="M20 1712l484 211l71 -199l-497 -168zM162 0v1403h227v-1403h-227z" />
<glyph unicode="&#xce;" horiz-adv-x="550" d="M-100 1589l274 293h193l274 -293h-238l-131 137l-133 -137h-239zM162 0v1403h227v-1403h-227z" />
<glyph unicode="&#xcf;" horiz-adv-x="550" d="M-45 1604v233h213v-233h-213zM162 0v1403h227v-1403h-227zM383 1604v233h213v-233h-213z" />
<glyph unicode="&#xd0;" horiz-adv-x="1318" d="M47 598v217h123v604h481q332 0 453 -178q61 -92 85.5 -212t24.5 -297t-23.5 -303t-82.5 -228q-119 -201 -457 -201h-481v598h-123zM395 217h256q205 0 271 150q35 76 46 159.5t11 208.5q0 244 -64.5 355.5t-263.5 111.5h-256v-387h291v-217h-291v-381z" />
<glyph unicode="&#xd1;" horiz-adv-x="1404" d="M162 0v1403h397l426 -1202h31v1202h227v-1403h-389l-436 1204h-29v-1204h-227zM322 1763q12 14 31.5 36t73.5 56.5t107.5 34.5t179.5 -51t148 -51q45 0 129 67l27 23l49 -162q-31 -43 -93.5 -84t-111.5 -41t-178 51.5t-156 51.5q-51 0 -131 -68l-26 -22z" />
<glyph unicode="&#xd2;" horiz-adv-x="1343" d="M100 694.5q0 370.5 128 550.5t443.5 180t442.5 -179t127 -551.5t-126 -545t-443.5 -172.5t-444.5 173.5t-127 544zM336 695.5q0 -277.5 69.5 -398.5t266 -121t265.5 119t69 398.5t-71 406.5t-263.5 127t-264 -127t-71.5 -404.5zM367 1724l71 199l484 -211l-58 -156z" />
<glyph unicode="&#xd3;" horiz-adv-x="1343" d="M100 694.5q0 370.5 128 550.5t443.5 180t442.5 -179t127 -551.5t-126 -545t-443.5 -172.5t-444.5 173.5t-127 544zM336 695.5q0 -277.5 69.5 -398.5t266 -121t265.5 119t69 398.5t-71 406.5t-263.5 127t-264 -127t-71.5 -404.5zM371 1712l483 211l72 -199l-498 -168z" />
<glyph unicode="&#xd4;" horiz-adv-x="1343" d="M100 694.5q0 370.5 128 550.5t443.5 180t442.5 -179t127 -551.5t-126 -545t-443.5 -172.5t-444.5 173.5t-127 544zM303 1589l275 293h192l274 -293h-237l-131 137l-133 -137h-240zM336 695.5q0 -277.5 69.5 -398.5t266 -121t265.5 119t69 398.5t-71 406.5t-263.5 127 t-264 -127t-71.5 -404.5z" />
<glyph unicode="&#xd5;" horiz-adv-x="1343" d="M100 694.5q0 370.5 128 550.5t443.5 180t442.5 -179t127 -551.5t-126 -545t-443.5 -172.5t-444.5 173.5t-127 544zM295 1763q12 14 31.5 36t74 56.5t107.5 34.5t179 -51t149 -51q45 0 127 67l28 23l49 -162q-31 -43 -93 -84t-111.5 -41t-178.5 51.5t-155 51.5 q-51 0 -131 -68l-27 -22zM336 695.5q0 -277.5 69.5 -398.5t266 -121t265.5 119t69 398.5t-71 406.5t-263.5 127t-264 -127t-71.5 -404.5z" />
<glyph unicode="&#xd6;" horiz-adv-x="1343" d="M100 694.5q0 370.5 128 550.5t443.5 180t442.5 -179t127 -551.5t-126 -545t-443.5 -172.5t-444.5 173.5t-127 544zM336 695.5q0 -277.5 69.5 -398.5t266 -121t265.5 119t69 398.5t-71 406.5t-263.5 127t-264 -127t-71.5 -404.5zM352 1604v233h213v-233h-213zM780 1604 v233h213v-233h-213z" />
<glyph unicode="&#xd7;" d="M127 209l309 303l-307 303l141 141l303 -307l306 309l139 -141l-309 -305l309 -303l-141 -141l-304 309l-303 -309z" />
<glyph unicode="&#xd8;" horiz-adv-x="1343" d="M100 694q0 371 128 551t444 180q125 0 229 -32l119 256l168 -72l-127 -272q180 -164 180 -611q0 -373 -126 -545t-443 -172q-123 0 -219 25l-117 -252l-164 80l119 254q-190 154 -191 610zM336 698.5q0 -274.5 61 -387.5l416 893q-61 23 -141 23q-193 0 -264.5 -127 t-71.5 -401.5zM543 193q59 -17 129 -17q197 0 265.5 119t68.5 386t-56 388z" />
<glyph unicode="&#xd9;" horiz-adv-x="1331" d="M150 453v950h229v-954q0 -272 286.5 -272.5t286.5 272.5v954h230v-950q0 -248 -130 -362t-387 -114t-386 114t-129 362zM377 1724l72 199l483 -211l-58 -156z" />
<glyph unicode="&#xda;" horiz-adv-x="1331" d="M150 453v950h229v-954q0 -272 286.5 -272.5t286.5 272.5v954h230v-950q0 -248 -130 -362t-387 -114t-386 114t-129 362zM379 1712l483 211l72 -199l-498 -168z" />
<glyph unicode="&#xdb;" horiz-adv-x="1331" d="M150 453v950h229v-954q0 -272 286.5 -272.5t286.5 272.5v954h230v-950q0 -248 -130 -362t-387 -114t-386 114t-129 362zM295 1589l274 293h193l274 -293h-237l-131 137l-133 -137h-240z" />
<glyph unicode="&#xdc;" horiz-adv-x="1331" d="M150 453v950h229v-954q0 -272 286.5 -272.5t286.5 272.5v954h230v-950q0 -248 -130 -362t-387 -114t-386 114t-129 362zM346 1604v233h213v-233h-213zM774 1604v233h213v-233h-213z" />
<glyph unicode="&#xdd;" horiz-adv-x="1124" d="M8 1403h256l297 -602l299 602h254l-436 -825v-578h-229v578zM303 1712l483 211l72 -199l-498 -168z" />
<glyph unicode="&#xde;" horiz-adv-x="1222" d="M162 0v1419h227v-215h287q479 0 479 -473q0 -244 -121.5 -377t-357.5 -133h-287v-221h-227zM389 442h285q125 0 187.5 76t62.5 210t-61.5 196.5t-188.5 62.5h-285v-545z" />
<glyph unicode="&#xdf;" horiz-adv-x="1218" d="M135 0v1090q0 209 102.5 296t334 87t338 -73t106.5 -239q0 -109 -42 -163t-128 -93t-108.5 -57.5t-22.5 -47t33.5 -54t167 -89t189.5 -127t56 -182.5q0 -207 -94 -289t-319 -82q-117 0 -248 29l-47 10l8 181q188 -23 284 -23q186 0 187 141q0 61 -36 94t-167 95 q-137 59 -190.5 119.5t-53.5 153.5t37 144.5t122 87t113.5 64.5t28.5 86.5t-45 87t-166.5 29.5t-169 -43t-47.5 -154v-1079h-223z" />
<glyph unicode="&#xe0;" horiz-adv-x="1038" d="M70 303q0 156 83 225.5t255 83.5l264 23v74q0 82 -36 114.5t-106 32.5q-131 0 -327 -16l-66 -4l-8 157q223 53 410.5 53.5t270.5 -80.5t83 -257v-467q2 -45 23.5 -66.5t66.5 -28.5l-6 -170q-176 0 -272 76q-164 -76 -330 -76q-305 0 -305 326zM227 1339l70 193l483 -207 l-53 -145zM293 301.5q0 -141.5 125 -141.5q102 0 217 33l37 12v272l-238 -22q-141 -12 -141 -153.5z" />
<glyph unicode="&#xe1;" horiz-adv-x="1038" d="M70 303q0 156 83 225.5t255 83.5l264 23v74q0 82 -36 114.5t-106 32.5q-131 0 -327 -16l-66 -4l-8 157q223 53 410.5 53.5t270.5 -80.5t83 -257v-467q2 -45 23.5 -66.5t66.5 -28.5l-6 -170q-176 0 -272 76q-164 -76 -330 -76q-305 0 -305 326zM215 1325l483 207l70 -193 l-500 -159zM293 301.5q0 -141.5 125 -141.5q102 0 217 33l37 12v272l-238 -22q-141 -12 -141 -153.5z" />
<glyph unicode="&#xe2;" horiz-adv-x="1038" d="M70 303q0 156 83 225.5t255 83.5l264 23v74q0 82 -36 114.5t-106 32.5q-131 0 -327 -16l-66 -4l-8 157q223 53 410.5 53.5t270.5 -80.5t83 -257v-467q2 -45 23.5 -66.5t66.5 -28.5l-6 -170q-176 0 -272 76q-164 -76 -330 -76q-305 0 -305 326zM180 1198l256 299h142 l260 -299h-209l-119 156l-119 -156h-211zM293 301.5q0 -141.5 125 -141.5q102 0 217 33l37 12v272l-238 -22q-141 -12 -141 -153.5z" />
<glyph unicode="&#xe3;" horiz-adv-x="1038" d="M70 303q0 156 83 225.5t255 83.5l264 23v74q0 82 -36 114.5t-106 32.5q-131 0 -327 -16l-66 -4l-8 157q223 53 410.5 53.5t270.5 -80.5t83 -257v-467q2 -45 23.5 -66.5t66.5 -28.5l-6 -170q-176 0 -272 76q-164 -76 -330 -76q-305 0 -305 326zM131 1364l33 33 q18 18 71.5 50t97.5 32t143 -41t124 -41q45 0 129 55l27 18l49 -131l-31 -32q-20 -19 -72.5 -51.5t-95.5 -32.5t-142 41t-128 41q-49 0 -129 -52l-27 -18zM293 301.5q0 -141.5 125 -141.5q102 0 217 33l37 12v272l-238 -22q-141 -12 -141 -153.5z" />
<glyph unicode="&#xe4;" horiz-adv-x="1038" d="M70 303q0 156 83 225.5t255 83.5l264 23v74q0 82 -36 114.5t-106 32.5q-131 0 -327 -16l-66 -4l-8 157q223 53 410.5 53.5t270.5 -80.5t83 -257v-467q2 -45 23.5 -66.5t66.5 -28.5l-6 -170q-176 0 -272 76q-164 -76 -330 -76q-305 0 -305 326zM170 1243v234h213v-234 h-213zM293 301.5q0 -141.5 125 -141.5q102 0 217 33l37 12v272l-238 -22q-141 -12 -141 -153.5zM598 1243v234h213v-234h-213z" />
<glyph unicode="&#xe5;" horiz-adv-x="1038" d="M70 303q0 156 83 225.5t255 83.5l264 23v74q0 82 -36 114.5t-106 32.5q-131 0 -327 -16l-66 -4l-8 157q223 53 410.5 53.5t270.5 -80.5t83 -257v-467q2 -45 23.5 -66.5t66.5 -28.5l-6 -170q-176 0 -272 76q-164 -76 -330 -76q-305 0 -305 326zM293 301.5 q0 -141.5 125 -141.5q102 0 217 33l37 12v272l-238 -22q-141 -12 -141 -153.5zM305 1311.5q0 97.5 65.5 163t162 65.5t163 -66.5t66.5 -163t-66.5 -161t-163 -64.5t-162 64.5t-65.5 162zM432 1312q0 -44 28.5 -74t73 -30t73 30t28.5 74t-28.5 73.5t-73 29.5t-73 -29.5 t-28.5 -73.5z" />
<glyph unicode="&#xe6;" horiz-adv-x="1624" d="M70 308.5q0 158.5 87 226t275 81.5l240 19v65q0 66 -36 100t-101 34q-154 0 -326 -17l-66 -6l-8 197q260 37 432 36.5t252 -106.5q100 106 305 106q418 0 418 -466l-14 -162h-635q2 -123 55 -179.5t199.5 -56t298.5 12.5l59 6l4 -174q-236 -47 -428 -47.5t-295 102.5 l-55 -25q-176 -78 -369 -78q-143 0 -217.5 86.5t-74.5 245zM292.5 302q-0.5 -134 110.5 -134q92 0 184.5 23.5t98.5 27.5q-16 96 -16 244l-236 -17q-141 -10 -141.5 -144zM893 590h430q0 139 -49 198.5t-163 59.5t-166 -61.5t-52 -196.5z" />
<glyph unicode="&#xe7;" horiz-adv-x="905" d="M90 530.5q0 272.5 100.5 394.5t327.5 122q109 0 256 -29l51 -10l-8 -177q-162 16 -239 17q-156 0 -209.5 -69.5t-53.5 -262t51.5 -266.5t213.5 -74l239 17l6 -179q-205 -37 -309 -37v-63q129 -2 186.5 -37t57.5 -139.5t-56.5 -157.5t-156.5 -53q-78 0 -158 14l-27 6 l9 134q70 -4 112 -5q84 0 84 64q0 31 -19.5 43t-64.5 12h-63v189q-180 23 -255 148.5t-75 398z" />
<glyph unicode="&#xe8;" horiz-adv-x="1040" d="M86 502q0 545 444 545q430 0 431 -469l-15 -160h-635q2 -127 55.5 -186.5t198.5 -59.5t299 12l58 6l4 -165q-233 -47 -414 -48q-227 0 -326.5 125t-99.5 400zM236 1339l69 193l483 -207l-53 -145zM309 590h432q0 152 -48 212t-162.5 60t-167 -63.5t-54.5 -208.5z" />
<glyph unicode="&#xe9;" horiz-adv-x="1040" d="M86 502q0 545 444 545q430 0 431 -469l-15 -160h-635q2 -127 55.5 -186.5t198.5 -59.5t299 12l58 6l4 -165q-233 -47 -414 -48q-227 0 -326.5 125t-99.5 400zM250 1325l483 207l70 -193l-500 -159zM309 590h432q0 152 -48 212t-162.5 60t-167 -63.5t-54.5 -208.5z" />
<glyph unicode="&#xea;" horiz-adv-x="1040" d="M86 502q0 545 444 545q430 0 431 -469l-15 -160h-635q2 -127 55.5 -186.5t198.5 -59.5t299 12l58 6l4 -165q-233 -47 -414 -48q-227 0 -326.5 125t-99.5 400zM203 1198l256 299h141l260 -299h-209l-119 156l-118 -156h-211zM309 590h432q0 152 -48 212t-162.5 60 t-167 -63.5t-54.5 -208.5z" />
<glyph unicode="&#xeb;" horiz-adv-x="1040" d="M86 502q0 545 444 545q430 0 431 -469l-15 -160h-635q2 -127 55.5 -186.5t198.5 -59.5t299 12l58 6l4 -165q-233 -47 -414 -48q-227 0 -326.5 125t-99.5 400zM205 1243v234h213v-234h-213zM309 590h432q0 152 -48 212t-162.5 60t-167 -63.5t-54.5 -208.5zM633 1243v234 h213v-234h-213z" />
<glyph unicode="&#xec;" horiz-adv-x="493" d="M-121 1339l70 193l483 -207l-53 -145zM135 0v1024h223v-1024h-223z" />
<glyph unicode="&#xed;" horiz-adv-x="493" d="M70 1325l483 207l70 -193l-500 -159zM135 0v1024h223v-1024h-223z" />
<glyph unicode="&#xee;" horiz-adv-x="493" d="M-90 1198l256 299h141l260 -299h-209l-118 156l-119 -156h-211zM135 0v1024h223v-1024h-223z" />
<glyph unicode="&#xef;" horiz-adv-x="493" d="M-82 1243v234h213v-234h-213zM135 0v1024h223v-1024h-223zM346 1243v234h213v-234h-213z" />
<glyph unicode="&#xf0;" horiz-adv-x="1144" d="M82 431q0 218 111.5 339t326.5 121q131 0 258 -47l41 -15q-10 113 -62 196t-167 149l-254 -170l-92 129l174 116q-90 31 -238 64l35 160q229 -31 395 -95l201 135l94 -129l-133 -88q281 -186 281 -576t-117 -564t-383 -174q-229 0 -350 115.5t-121 333.5zM315 440 q0 -258 238 -258q137 0 200.5 103.5t65.5 349.5q-137 57 -284 57q-106 0 -163 -71.5t-57 -180.5z" />
<glyph unicode="&#xf1;" horiz-adv-x="1118" d="M135 0v1024h221v-63l41 22q41 20 112 42t130 22q205 0 279.5 -116t74.5 -382v-549h-221v543q0 166 -36 235.5t-150.5 69.5t-227.5 -53v-795h-223zM236 1364l30 33q20 18 73.5 50t97.5 32t143.5 -41t124.5 -41q45 0 126 55l29 18l49 -131l-32 -32q-19 -19 -71 -51.5 t-95 -32.5t-142.5 41t-126.5 41q-51 0 -131 -52l-26 -18z" />
<glyph unicode="&#xf2;" horiz-adv-x="1085" d="M86 514q0 266 105.5 399.5t351 133.5t351 -133.5t105.5 -399.5t-102 -401.5t-354 -135.5t-354.5 135.5t-102.5 401.5zM268 1339l70 193l483 -207l-53 -145zM311 516q0 -186 47.5 -268t184.5 -82t184 82t47 268t-50 264t-181 78t-181.5 -78t-50.5 -264z" />
<glyph unicode="&#xf3;" horiz-adv-x="1085" d="M86 514q0 266 105.5 399.5t351 133.5t351 -133.5t105.5 -399.5t-102 -401.5t-354 -135.5t-354.5 135.5t-102.5 401.5zM270 1325l484 207l69 -193l-499 -159zM311 516q0 -186 47.5 -268t184.5 -82t184 82t47 268t-50 264t-181 78t-181.5 -78t-50.5 -264z" />
<glyph unicode="&#xf4;" horiz-adv-x="1085" d="M86 514q0 266 105.5 399.5t351 133.5t351 -133.5t105.5 -399.5t-102 -401.5t-354 -135.5t-354.5 135.5t-102.5 401.5zM205 1198l256 299h141l260 -299h-209l-118 156l-119 -156h-211zM311 516q0 -186 47.5 -268t184.5 -82t184 82t47 268t-50 264t-181 78t-181.5 -78 t-50.5 -264z" />
<glyph unicode="&#xf5;" horiz-adv-x="1085" d="M86 514q0 266 105.5 399.5t351 133.5t351 -133.5t105.5 -399.5t-102 -401.5t-354 -135.5t-354.5 135.5t-102.5 401.5zM199 1364l30 33q20 18 73.5 50t97.5 32t143.5 -41t124.5 -41q45 0 127 55l28 18l49 -131l-32 -32q-19 -19 -71 -51.5t-95 -32.5t-142.5 41t-125.5 41 q-51 0 -132 -52l-26 -18zM311 516q0 -186 47.5 -268t184.5 -82t184 82t47 268t-50 264t-181 78t-181.5 -78t-50.5 -264z" />
<glyph unicode="&#xf6;" horiz-adv-x="1085" d="M86 514q0 266 105.5 399.5t351 133.5t351 -133.5t105.5 -399.5t-102 -401.5t-354 -135.5t-354.5 135.5t-102.5 401.5zM219 1243v234h213v-234h-213zM311 516q0 -186 47.5 -268t184.5 -82t184 82t47 268t-50 264t-181 78t-181.5 -78t-50.5 -264zM647 1243v234h213v-234 h-213z" />
<glyph unicode="&#xf7;" d="M215 494v225h139v158h437v-158h141v-225h-717zM461 47v242h221v-242h-221z" />
<glyph unicode="&#xf8;" horiz-adv-x="1085" d="M86 518q0 262 105.5 395.5t351.5 133.5q53 0 131 -13l84 207l139 -51l-86 -207q188 -113 188 -465q0 -270 -102 -405.5t-354 -135.5q-78 0 -140 13l-88 -215l-137 51l90 215q-182 117 -182 477zM311 508.5q0 -193.5 49 -264.5l244 608q-26 6 -61 6q-131 0 -181.5 -78 t-50.5 -271.5zM473 172q31 -6 70 -6q137 0 184 82t47 270.5t-53 263.5z" />
<glyph unicode="&#xf9;" horiz-adv-x="1112" d="M125 489v535h223v-537q0 -184 31 -247.5t143 -63.5q111 0 203 41l31 12v795h221v-1024h-221v63q-150 -86 -277 -86q-211 0 -282.5 114t-71.5 398zM215 1339l70 193l483 -207l-53 -145z" />
<glyph unicode="&#xfa;" horiz-adv-x="1112" d="M125 489v535h223v-537q0 -184 31 -247.5t148.5 -63.5t228.5 53v795h221v-1024h-221v63l-41 -22q-41 -20 -109.5 -42t-126.5 -22q-211 0 -282.5 114t-71.5 398zM289 1325l483 207l70 -193l-500 -159z" />
<glyph unicode="&#xfb;" horiz-adv-x="1112" d="M125 489v535h223v-537q0 -184 31 -247.5t148.5 -63.5t228.5 53v795h221v-1024h-221v63l-41 -22q-41 -20 -109.5 -42t-126.5 -22q-211 0 -282.5 114t-71.5 398zM188 1198l256 299h142l260 -299h-209l-119 156l-119 -156h-211z" />
<glyph unicode="&#xfc;" horiz-adv-x="1112" d="M125 489v535h223v-537q0 -184 31 -247.5t148.5 -63.5t228.5 53v795h221v-1024h-221v63l-41 -22q-41 -20 -109.5 -42t-126.5 -22q-211 0 -282.5 114t-71.5 398zM240 1243v234h213v-234h-213zM668 1243v234h213v-234h-213z" />
<glyph unicode="&#xfd;" horiz-adv-x="1007" d="M41 1024h219l217 -834h55l218 834h221l-389 -1464h-220l123 440h-176zM279 1325l483 207l69 -193l-499 -159z" />
<glyph unicode="&#xfe;" horiz-adv-x="1097" d="M135 -440v1890h223v-465q141 62 254 62q213 0 305.5 -118t92.5 -416t-105.5 -417t-359.5 -119l-187 15v-432h-223zM358 182q109 -12 170 -12q152 0 204 80t52 263t-47 259t-151 76q-96 0 -195 -31l-33 -10v-625z" />
<glyph unicode="&#xff;" horiz-adv-x="1007" d="M41 1024h219l217 -834h55l218 834h221l-389 -1464h-220l123 440h-176zM184 1243v234h213v-234h-213zM612 1243v234h213v-234h-213z" />
<glyph unicode="&#x152;" horiz-adv-x="1867" d="M104 707q0 395 119 565t418 170q121 0 260 -23h877v-219h-652v-371h529v-217h-529v-393h652v-219h-873q-147 -23 -286.5 -23t-245 44.5t-163.5 140.5t-82 224t-24 321zM340 708.5q0 -290.5 66.5 -399t271.5 -108.5q61 0 223 14v987q-168 14 -229 15q-193 0 -262.5 -109 t-69.5 -399.5z" />
<glyph unicode="&#x153;" horiz-adv-x="1728" d="M86 514q0 266 105.5 398t355.5 132t340 -186q96 186 321.5 186t333 -114.5t107.5 -351.5l-17 -162h-635q2 -123 55.5 -179.5t199.5 -56t300 12.5l58 6l4 -174q-233 -47 -414 -48q-231 0 -321 160q-92 -160 -339 -160t-350.5 135.5t-103.5 401.5zM311 515 q0 -179 48.5 -258t184.5 -79t183 79t47 255t-52 255t-180 79t-179.5 -76t-51.5 -255zM997 590h430q0 141 -48 199.5t-161.5 58.5t-167 -62.5t-53.5 -195.5z" />
<glyph unicode="&#x178;" horiz-adv-x="1124" d="M8 1403h256l297 -602l299 602h254l-436 -825v-578h-229v578zM238 1604v233h213v-233h-213zM666 1604v233h213v-233h-213z" />
<glyph unicode="&#x2c6;" horiz-adv-x="520" d="M-45 1198l256 299h141l260 -299h-209l-118 156l-119 -156h-211z" />
<glyph unicode="&#x2dc;" horiz-adv-x="520" d="M-51 1364l31 33q20 18 73 50t97.5 32t143.5 -41t124 -41q45 0 127 55l28 18l50 -131l-33 -32q-19 -19 -71 -51.5t-95 -32.5t-142.5 41t-125.5 41q-51 0 -131 -52l-27 -18z" />
<glyph unicode="&#x2000;" horiz-adv-x="961" />
<glyph unicode="&#x2001;" horiz-adv-x="1923" />
<glyph unicode="&#x2002;" horiz-adv-x="961" />
<glyph unicode="&#x2003;" horiz-adv-x="1923" />
<glyph unicode="&#x2004;" horiz-adv-x="641" />
<glyph unicode="&#x2005;" horiz-adv-x="480" />
<glyph unicode="&#x2006;" horiz-adv-x="320" />
<glyph unicode="&#x2007;" horiz-adv-x="320" />
<glyph unicode="&#x2008;" horiz-adv-x="240" />
<glyph unicode="&#x2009;" horiz-adv-x="384" />
<glyph unicode="&#x200a;" horiz-adv-x="106" />
<glyph unicode="&#x2010;" horiz-adv-x="862" d="M125 451v202h612v-202h-612z" />
<glyph unicode="&#x2011;" horiz-adv-x="862" d="M125 451v202h612v-202h-612z" />
<glyph unicode="&#x2012;" horiz-adv-x="862" d="M125 451v202h612v-202h-612z" />
<glyph unicode="&#x2013;" horiz-adv-x="1273" d="M125 451v190h1024v-190h-1024z" />
<glyph unicode="&#x2014;" horiz-adv-x="2297" d="M125 451v190h2048v-190h-2048z" />
<glyph unicode="&#x2018;" horiz-adv-x="495" d="M86 934l156 481h170l-93 -481h-233z" />
<glyph unicode="&#x2019;" horiz-adv-x="487" d="M96 936l92 481h234l-156 -481h-170z" />
<glyph unicode="&#x201a;" horiz-adv-x="489" d="M117 -117l45 232h110l-73 -232h-82z" />
<glyph unicode="&#x201c;" horiz-adv-x="845" d="M86 934l156 481h170l-93 -481h-233zM436 934l156 481h170l-92 -481h-234z" />
<glyph unicode="&#x201d;" horiz-adv-x="843" d="M96 938l92 481h234l-156 -481h-170zM451 938l92 481h233l-155 -481h-170z" />
<glyph unicode="&#x201e;" horiz-adv-x="806" d="M12 -246l156 482h170l-92 -482h-234zM369 -246l155 482h170l-92 -482h-233z" />
<glyph unicode="&#x2022;" horiz-adv-x="942" d="M215 211v577h512v-577h-512z" />
<glyph unicode="&#x2026;" horiz-adv-x="1531" d="M125 0v295h240v-295h-240zM647 0v295h240v-295h-240zM1167 0v295h240v-295h-240z" />
<glyph unicode="&#x202f;" horiz-adv-x="384" />
<glyph unicode="&#x2039;" horiz-adv-x="636" d="M86 418v166l428 317v-225l-238 -170l238 -193v-227z" />
<glyph unicode="&#x203a;" horiz-adv-x="636" d="M121 100v228l237 192l-237 170v225l428 -317v-164z" />
<glyph unicode="&#x205f;" horiz-adv-x="480" />
<glyph unicode="&#x20ac;" d="M57 414v172h117q-2 29 -2 90v72h-115v172h127q29 240 141.5 347t354.5 107q158 0 387 -49l-8 -178q-166 31 -328 31t-229.5 -58.5t-87.5 -199.5h528v-172h-543v-162h543v-172h-528q23 -131 90 -185.5t212.5 -54.5t342.5 29l6 -180q-203 -45 -385 -46q-238 0 -350.5 105.5 t-143.5 331.5h-129z" />
<glyph unicode="&#x2122;" horiz-adv-x="1368" d="M174 1169v138h410v-138h-107v-489h-151v489h-152zM641 678v629h182l107 -369l114 369h181v-629h-142v401l-98 -364h-102l-101 364v-401h-141z" />
<glyph unicode="&#x25fc;" horiz-adv-x="1024" d="M0 0v1024h1024v-1024h-1024z" />
</font>
</defs>
</svg>
